Nulled Scripts / Websoftware | Kiniro No Corda: Blue♪Sky | Majin Bone Subtitle IndonesiaHey Arnold! | Solid Explorer File Manager pro | DVD-Cloner 2018 15 00 Build 1432 + Crack [CrackzSoft]
 


 

Filecrypt zeigt vereinzelt Files als "n/a". Die Downloads sind trotzdem komplett.

DNS SERVER AENDERNum der staatlichen Zensur zu umgehen. Sollten wir von eurem Provider geseprrt werden, nutzt den TOR BROWSER oder ändert euren DNS SERVER.

Filmwünsche können bei uns im Forum abgegeben werden

Wir Speichern Nicht




 
 
 
Top Releases
Brawl.in.Cell.Block.99.UNCUT...
Brawl.in.Cell.Block.99.UNCUT...
Ready.Player.One.2018.DUAL.C...
Prakti.com.UNRATED.2013.Germ...
The.Kissing.Booth.2018.Germa...
The.Ritual.2017.German.AC3.D...
Feinde.Hostiles.2017.MULTi.C...
Wohne.lieber.ungewoehnlich.2...
Wohne.lieber.ungewoehnlich.2...
Journeyman.2017.German.DL.10...

Cinedubs
Searching.2018.German.AC3MD....
Searching.2018.German.AC3MD....
211.Cops.Under.Fire.2018.Ger...
211.Cops.Under.Fire.2018.Ger...
The.Watcher.Willkommen.im.Mo...
The.Watcher.Willkommen.im.Mo...
MEG.Biss.bald.2018.German.AC...
MEG.Biss.bald.2018.German.AC...
Mamma.Mia.2.Here.We.Go.Again...
Mamma.Mia.2.Here.We.Go.Again...

Neuerscheinungen 2017-18
Muse.2017.MULTi.COMPLETE.BLU...
Siam.Untergang.des.Koenigrei...
The.Punisher.EXTENDED.GERMAN...
The.Punisher.EXTENDED.GERMAN...
No.Way.Out.Gegen.die.Flammen...
No.Way.Out.Gegen.die.Flammen...
Muse.2017.German.DL.1080p.Bl...
Muse.2017.German.720p.BluRay...
Skyscraper.2018.3D.HSBS.Germ...
Fuenf.Freunde.und.das.Tal.de...

XXX
MistressT.18.02.27.Corporal....
DateSlam.18.10.01.Dee.First....
SisLovesMe.18.10.05.Victoria...
WankItNow.17.11.19.Cherry.Bl...
MistressT.18.03.29.Therapist...
MistressT.18.07.05.Faux.Fur....
Bang.Glamkore.18.10.04.Chloe...
FirstTimeAuditions.18.10.04....
RealityJunkies.18.10.05.Call...
DogHouseDigital.18.10.03.Shr...
ATKGirlfriends.18.10.05.Caro...
MistressT.18.08.18.Come.To.B...
Housewife1On1.18.10.01.Jessi...
VivThomas.18.10.03.Emylia.Ar...
MistressT.17.12.19.Goddess.P...
MistressT.18.02.08.Virgin.Po...
MistressT.18.05.08.New.Fuck....
ATKHairy.18.09.30.Penelope.R...
Shoplyfter.18.10.03.Emma.Sta...
Vixen.18.10.01.Tiffany.Tatum...

3D
Jurassic.World.Das.gefallene...
Jurassic.World.Das.gefallene...
Best.of.3D.vol.10.-.12.GERMA...
Die.Biene.Maja.2.Die.Honigsp...
Sharknado.6.The.Last.One.3D....
Solo.A.Star.Wars.Story.3D.20...
Solo.A.Star.Wars.Story.3D.20...
Die.Biene.Maja.2.Die.Honigsp...
Avengers.Infinity.War.3D.201...
Avengers.Infinity.War.3D.201...
Rampage.Big.Meets.Bigger.3D....
Rampage.Big.Meets.Bigger.3D....
Rampage.Big.Meets.Bigger.3D....
Winter.Games.3D.2013.DUAL.CO...
Tomb.Raider.3D.2018.German.7...

Old_Stuff
Britney.Spears.Live.The.Femm...
Buffy.The.Vampire.Slayer.199...
IMAX.Ride.Around.The.World.2...
Schimanski.-.Duisburg.Ruhror...
Akte.X.S02.German.DTS.DL.108...
How.I.Met.Your.Mother.S02.Ge...
Akte.X.S01.German.DTS.DL.108...
Den.Himmel.gibts.echt.DL.108...
Vikings.S02.German.DL.1080p....
Be.Kind.Rewind.Abgedreht.200...
Be.Kind.Rewind.Abgedreht.200...
Dracula.The.Dark.Lord.2012.G...
21.2008.German.DL.1080p.BluR...
Achtung.fertig.WK.Swissgerma...
The.Ouija.Exorcism.2015.MULT...

Filme
Out.of.Rosenheim.1987.German...
Out.of.Rosenheim.1987.German...
Todesstille.Eine.Reise.ins.G...
The.Collector.2.The.Collecti...
Street.Fighter.The.Legend.Of...
Snowfall.S02.German.DD51.Dub...
Cherry.2000.UNCUT.1987.Germa...
Riverdale.US.S03.GERMAN.DL.1...
Riverdale.US.S03.GERMAN.DL.7...
4.Blocks.S02.GERMAN.1080p.HD...
4.Blocks.S02.GERMAN.720p.HDT...
The.Outpost.S01.GERMAN.720p....
The.Handmaids.Tale.S02.COMPL...
The.Handmaids.Tale.S02.COMPL...
Mr.Mercedes.S02.German.DD+51...
Mr.Mercedes.S02.German.DD+51...
Legends.of.Tomorrow.S03.Germ...
iZombie.S04.German.DD51.Dubb...
iZombie.S04.German.DD51.Dubb...
Die.Simpsons.S29.GERMAN.DUBB...
Arrow.S06.GERMAN.DL.1080p.HD...
Arrow.S06.GERMAN.DL.720p.HDT...
Einbruch.und.Diebstahl.2006....
Eine.gefaehrliche.Frau.1993....

 
 
Brawl.in.Cell.Block.99.UNCUT.German.DL.AC3.Dubbed.720p.BluRay.x264-PsO

Jahr: 2017
Genre: Drama
Sprache: Deutsch AC3 | Englisch DTS
Laufzeit: 2h 12mn
Bitrate: 6 294 Kbps
Format: MKV
Größe: 5.82 GiB
Release:

Beschreibung:

Bradleys Drogengeschäfte haben seine Lebenssituation nach einer Kündigung und dem Scheitern einer turbulenten Ehe wieder verbessert, bringen ihn am Ende aber in den Knast. Allerdings waren es nicht seine Drogen, die in Folge eines schiefgelaufenen Drogendeals von der Polizei beschlagnahmt wurden. Dabei handelte es sich um das Eigentum seines Auftraggebers, der ihn nun vor eine tödliche Entscheidung stellt: Entweder lässt er sich in den berüchtigten Zellblock 99 verlegen und tötet dort eine noch unbekannte Zielperson, oder seine hochschwangere Frau Lauren erwartet ein grausames Schicksal. Bei der Exekution einiger sehr gewalttätiger Aufträge verwandelt Bradley das Gefängnis fortan in ein Schlachtfeld.



Complete name                            : pso-brawl99_bd.720p.mkv
Format                                   : Matroska
Format version                           : Version 4 / Version 2
File size                                : 5.82 GiB
Duration                                 : 2h 12mn
Overall bit rate                         : 6 294 Kbps
Encoded date                             : UTC 2018-10-11 17:44:58
Writing application                      : mkvmerge v8.0.0 ('Til The Day That I Die') 64bit
Writing library                          : libebml v1.3.1 + libmatroska v1.4.2
DURATION                                 : 00:04:50.290000000
NUMBER_OF_FRAMES                         : 11
NUMBER_OF_BYTES                          : 349
_STATISTICS_WRITING_APP                  : mkvmerge v8.0.0 ('Til The Day That I Die') 64bit
_STATISTICS_WRITING_DATE_UTC             : 2018-10-11 17:44:58
_STATISTICS_TAGS                         : BPS DURATION NUMBER_OF_FRAMES NUMBER_OF_BYTES

Video
ID                                       : 1
Format                                   : AVC
Format/Info                              : Advanced Video Codec
Format profile                           : [email protected]
Format settings, CABAC                   : Yes
Format settings, ReFrames                : 5 frames
Codec ID                                 : V_MPEG4/ISO/AVC
Duration                                 : 2h 12mn
Bit rate                                 : 4 398 Kbps
Width                                    : 1 280 pixels
Height                                   : 688 pixels
Display aspect ratio                     : 1.85:1
Frame rate mode                          : Constant
Frame rate                               : 23.976 fps
Color space                              : YUV
Chroma subsampling                       : 4:2:0
Bit depth                                : 8 bits
Scan type                                : Progressive
Bits/(Pixel*Frame)                       : 0.208
Stream size                              : 3.95 GiB (68%)
Writing library                          : x264 core 152 r2851 ba24899
Encoding settings                        : cabac=1 / ref=5 / deblock=1:-3:-3 / analyse=0x3:0x113 / me=umh / subme=8 / psy=1 / psy_rd=1.00:0.00 / mixed_ref=1 / me_range=24 / chroma_me=1 / trellis=2 / 8x8dct=1 / cqm=0 / deadzone=21,11 / fast_pskip=1 / chroma_qp_offset=-2 / threads=18 / lookahead_threads=3 / sliced_threads=0 / nr=0 / decimate=1 / interlaced=0 / bluray_compat=0 / constrained_intra=0 / bframes=3 / b_pyramid=2 / b_adapt=2 / b_bias=0 / direct=3 / weightb=1 / open_gop=0 / weightp=2 / keyint=240 / keyint_min=24 / scenecut=40 / intra_refresh=0 / rc_lookahead=50 / rc=2pass / mbtree=1 / bitrate=4398 / ratetol=1.0 / qcomp=0.60 / qpmin=0 / qpmax=69 / qpstep=4 / cplxblur=20.0 / qblur=0.5 / ip_ratio=1.40 / aq=3:0.80
Default                                  : Yes
Forced                                   : No
DURATION                                 : 02:12:24.353000000
NUMBER_OF_FRAMES                         : 190474
NUMBER_OF_BYTES                          : 4368199311
_STATISTICS_WRITING_APP                  : mkvmerge v8.0.0 ('Til The Day That I Die') 64bit
_STATISTICS_WRITING_DATE_UTC             : 2018-10-11 17:44:58
_STATISTICS_TAGS                         : BPS DURATION NUMBER_OF_FRAMES NUMBER_OF_BYTES

Audio #1
ID                                       : 2
Format                                   : AC-3
Format/Info                              : Audio Coding 3
Mode extension                           : CM (complete main)
Format settings, Endianness              : Big
Codec ID                                 : A_AC3
Duration                                 : 2h 12mn
Bit rate mode                            : Constant
Bit rate                                 : 384 Kbps
Channel(s)                               : 6 channels
Channel positions                        : Front: L C R, Side: L R, LFE
Sampling rate                            : 48.0 KHz
Bit depth                                : 16 bits
Compression mode                         : Lossy
Stream size                              : 364 MiB (6%)
Language                                 : German
Default                                  : Yes
Forced                                   : Yes
DURATION                                 : 02:12:23.339000000
NUMBER_OF_FRAMES                         : 744688
NUMBER_OF_BYTES                          : 1498312256
_STATISTICS_WRITING_APP                  : mkvmerge v8.0.0 ('Til The Day That I Die') 64bit
_STATISTICS_WRITING_DATE_UTC             : 2018-10-11 17:44:58
_STATISTICS_TAGS                         : BPS DURATION NUMBER_OF_FRAMES NUMBER_OF_BYTES

Audio #2
ID                                       : 3
Format                                   : DTS
Format/Info                              : Digital Theater Systems
Mode                                     : 16
Format settings, Endianness              : Big
Codec ID                                 : A_DTS
Duration                                 : 2h 12mn
Bit rate mode                            : Constant
Bit rate                                 : 1 509 Kbps
Channel(s)                               : 6 channels
Channel positions                        : Front: L C R, Side: L R, LFE
Sampling rate                            : 48.0 KHz
Bit depth                                : 24 bits
Compression mode                         : Lossy
Stream size                              : 1.40 GiB (24%)
Language                                 : English
Default                                  : No
Forced                                   : No
DURATION                                 : 02:12:07.127000000
NUMBER_OF_FRAMES                         : 1391
NUMBER_OF_BYTES                          : 38404
_STATISTICS_WRITING_APP                  : mkvmerge v8.0.0 ('Til The Day That I Die') 64bit
_STATISTICS_WRITING_DATE_UTC             : 2018-10-11 17:44:58
_STATISTICS_TAGS                         : BPS DURATION NUMBER_OF_FRAMES NUMBER_OF_BYTES

Text #1
ID                                       : 4
Format                                   : UTF-8
Codec ID                                 : S_TEXT/UTF8
Codec ID/Info                            : UTF-8 Plain Text
Title                                    : forced
Language                                 : German
Default                                  : Yes
Forced                                   : Yes

Text #2
ID                                       : 5
Format                                   : UTF-8
Codec ID                                 : S_TEXT/UTF8
Codec ID/Info                            : UTF-8 Plain Text
Language                                 : English
Default                                  : No
Forced                                   : No


Download:
Share Online Share OnlineShare OnlineShare Online
 

Kommentare