Panda VPNSécurité et vie privée pour Windows | Watch now! | 7.8.0 Wattpad Milhões de livros gratuitos no seu dispositivo AndroidMilitary, weapon | Senki Zesshou Symphogear GX | Ramp Car Stunts
 


 

Filecrypt zeigt vereinzelt Files als "n/a". Die Downloads sind trotzdem komplett.

DNS SERVER AENDERNum der staatlichen Zensur zu umgehen. Sollten wir von eurem Provider geseprrt werden, nutzt den TOR BROWSER oder ändert euren DNS SERVER.

Filmwünsche können bei uns im Forum abgegeben werden

Wir Speichern Nicht




 
 
 
Top Releases
Journeyman.2017.German.DL.10...
Journeyman.2017.German.720p....
Journeyman.2017.DUAL.COMPLET...
Dunkirk.2017.IMAX.German.DTS...
Summer.Of.84.GERMAN.2018.DL....
Summer.Of.84.GERMAN.2018.DL....
Summer.of.84.2018.German.AC3...
Burning.2.On.Ice.2016.GERMAN...
Abgang.mit.Stil.2017.German....
Burning.2.On.Ice.2016.GERMAN...

Cinedubs
Searching.2018.German.AC3MD....
Searching.2018.German.AC3MD....
211.Cops.Under.Fire.2018.Ger...
211.Cops.Under.Fire.2018.Ger...
The.Watcher.Willkommen.im.Mo...
The.Watcher.Willkommen.im.Mo...
MEG.Biss.bald.2018.German.AC...
MEG.Biss.bald.2018.German.AC...
Mamma.Mia.2.Here.We.Go.Again...
Mamma.Mia.2.Here.We.Go.Again...

Neuerscheinungen 2017-18
Skyscraper.2018.3D.HSBS.Germ...
Fuenf.Freunde.und.das.Tal.de...
Death.Race.4.Beyond.Anarchy....
Death.Race.4.Beyond.Anarchy....
Super.Heroes.Aquaman.Rage.of...
Sick.for.Toys.2018.German.DL...
Presence.Es.ist.hier.2015.MU...
Gods.of.Egypt.2016.German.AC...
Haensel.und.Gretel.Hexenjaeg...
Nach.einer.wahren.Geschichte...

XXX
EvilAngel.Anal.Slut.Diaries....
Yonitale.18.10.05.Christin.Y...
TrueAnal.18.09.30.Ana.Foxxx....
Throated.18.10.05.Eliza.Ibar...
Yonitale.18.10.03.Katya.Clov...
WankItNow.17.11.20.Ruby.Summ...
ThisGirlSucks.18.10.03.Augus...
WankItNow.18.09.30.Georgie.L...
WankItNow.18.10.02.Roxy.R.I....
WildOnCam.18.10.01.Kate.Kenn...
WebYoung.18.10.05.Adria.Rae....
WcpClub.18.10.05.Sexfeene.Ro...
Yanks.18.10.04.Penny.Lay.And...
WankItNow.18.10.01.Jamie.T.J...
Tiny4K.18.10.04.Addee.Kate.P...
WetAndPissy.18.10.02.Emma.De...
WhiteGhetto.18.10.02.Raylene...
TrickyOldTeacher.18.10.04.Ma...
X-Art.18.09.30.Kendall.Rae.A...
WickedPictures.Squirt.XXX.72...

3D
Skyscraper.2018.German.DTSD....
Jurassic.World.Das.gefallene...
Jurassic.World.Das.gefallene...
Best.of.3D.vol.10.-.12.GERMA...
Die.Biene.Maja.2.Die.Honigsp...
Sharknado.6.The.Last.One.3D....
Solo.A.Star.Wars.Story.3D.20...
Solo.A.Star.Wars.Story.3D.20...
Die.Biene.Maja.2.Die.Honigsp...
Avengers.Infinity.War.3D.201...
Avengers.Infinity.War.3D.201...
Rampage.Big.Meets.Bigger.3D....
Rampage.Big.Meets.Bigger.3D....
Rampage.Big.Meets.Bigger.3D....
Winter.Games.3D.2013.DUAL.CO...

Old_Stuff
Britney.Spears.Live.The.Femm...
Buffy.The.Vampire.Slayer.199...
IMAX.Ride.Around.The.World.2...
Schimanski.-.Duisburg.Ruhror...
Akte.X.S02.German.DTS.DL.108...
How.I.Met.Your.Mother.S02.Ge...
Akte.X.S01.German.DTS.DL.108...
Den.Himmel.gibts.echt.DL.108...
Vikings.S02.German.DL.1080p....
Be.Kind.Rewind.Abgedreht.200...
Be.Kind.Rewind.Abgedreht.200...
Dracula.The.Dark.Lord.2012.G...
21.2008.German.DL.1080p.BluR...
Achtung.fertig.WK.Swissgerma...
The.Ouija.Exorcism.2015.MULT...

Filme
Young.Sheldon.S01.GERMAN.DUB...
Young.Sheldon.S01.GERMAN.DUB...
The.Last.Ship.S05.GERMAN.DUB...
The.Last.Ship.S05.GERMAN.DUB...
The.Eye.Infinity.2005.German...
The.Eye.2008.German.DTS.1080...
The.Expendables.EXTENDED.DC....
The.Expendables.2.Uncut.Germ...
The.Face.of.Love.2014.German...
Bad.Samaritan.Im.Visier.des....
Jupiter.Ascending.2015.OPEN....
Happy.Death.Day.2017.OPEN.MA...
Zombieland.2009.OPEN.MATTE.G...
The.Executor.Der.Vollstrecke...
The.Exorcism.Tapes.Geheiligt...
Killing.Bono.2011.German.DL....
Zombieland.2009.German.DTS.D...
Ab.Tak.Chhappan.2004.German....
Sie.waren.Sechs.1941.German....
Amerikanisches.Idyll.2016.Ge...
Volt.2016.German.DTS.1080p.B...
The.End.of.the.Tour.2015.GER...
The.End.Of.The.World.2010.Ge...
The.English.Teacher.Eine.Lek...

 
 
Journeyman.2017.German.DL.1080p.BluRay.x264-ENCOUNTERS

Jahr: 2017
Genre: Drama
Sprache: Deutsch DTS | Englisch DTS
Laufzeit: 1h 32mn
Bitrate: 10.2 Mbps
Format: MKV
Größe: 6.62 GiB
Release:

Beschreibung:

Matty Burton hat sein Ziel erreicht: Er ist amtierender Champion im Halbschwergewicht. Im Zenit seiner Karriere gilt es nun, das Geld zu verdienen, das ihm und seiner Familie eine sorgenfreie Zukunft bescheren soll. Mit einem letzten Kampf gegen Andre “The Future” Bright will er seiner Karriere den letzten Schliff verleihen und anschließend mit dem Preisgeld gebührend abtreten. Nach einem erbitterten letzten Fight kehrt Matty heim und verliert kurz darauf infolge der heftigen Schläge das Bewusstsein. Als er kurze Zeit später im Krankenbett aus dem Koma erwacht, lautet die Diagnose: Gedächtnisverlust. Nach und nach muss Matty die Lücken seiner Erinnerungen wieder füllen und merkt, dass sein wichtigster Kampf wohl gerade erst begonnen hat…



Complete name                            : encounters-journeyman_1080p.mkv
Format                                   : Matroska
Format version                           : Version 4 / Version 2
File size                                : 6.62 GiB
Duration                                 : 1h 32mn
Overall bit rate                         : 10.2 Mbps
Encoded date                             : UTC 2018-10-10 15:07:52
Writing application                      : mkvmerge v19.0.0 ('Brave Captain') 64-bit
Writing library                          : libebml v1.3.5 + libmatroska v1.4.8
DURATION                                 : 00:00:01.708000000
NUMBER_OF_FRAMES                         : 1
NUMBER_OF_BYTES                          : 37
_STATISTICS_WRITING_APP                  : mkvmerge v19.0.0 ('Brave Captain') 64-bit
_STATISTICS_WRITING_DATE_UTC             : 2018-10-10 15:07:52
_STATISTICS_TAGS                         : BPS DURATION NUMBER_OF_FRAMES NUMBER_OF_BYTES

Video
ID                                       : 1
Format                                   : AVC
Format/Info                              : Advanced Video Codec
Format profile                           : [email protected]
Format settings, CABAC                   : Yes
Format settings, ReFrames                : 5 frames
Codec ID                                 : V_MPEG4/ISO/AVC
Duration                                 : 1h 32mn
Bit rate                                 : 6 996 Kbps
Width                                    : 1 920 pixels
Height                                   : 808 pixels
Display aspect ratio                     : 2.40:1
Frame rate mode                          : Constant
Frame rate                               : 24.000 fps
Color space                              : YUV
Chroma subsampling                       : 4:2:0
Bit depth                                : 8 bits
Scan type                                : Progressive
Bits/(Pixel*Frame)                       : 0.188
Stream size                              : 4.54 GiB (68%)
Title                                    : encounters-journeyman_1080p
Writing library                          : x264 core 155 r2901 7d0ff22
Encoding settings                        : cabac=1 / ref=5 / deblock=1:-1:-1 / analyse=0x3:0x133 / me=umh / subme=7 / psy=1 / psy_rd=1.00:0.15 / mixed_ref=1 / me_range=16 / chroma_me=1 / trellis=1 / 8x8dct=1 / cqm=0 / deadzone=21,11 / fast_pskip=0 / chroma_qp_offset=-3 / threads=24 / lookahead_threads=4 / sliced_threads=0 / nr=0 / decimate=1 / interlaced=0 / bluray_compat=0 / constrained_intra=0 / bframes=3 / b_pyramid=2 / b_adapt=1 / b_bias=0 / direct=1 / weightb=1 / open_gop=0 / weightp=2 / keyint=250 / keyint_min=24 / scenecut=40 / intra_refresh=0 / rc_lookahead=40 / rc=crf / mbtree=1 / crf=20.0 / qcomp=0.60 / qpmin=0 / qpmax=69 / qpstep=4 / ip_ratio=1.40 / aq=1:1.00
Default                                  : Yes
Forced                                   : No

Audio #1
ID                                       : 2
Format                                   : DTS
Format/Info                              : Digital Theater Systems
Mode                                     : 16
Format settings, Endianness              : Big
Codec ID                                 : A_DTS
Duration                                 : 1h 32mn
Bit rate mode                            : Constant
Bit rate                                 : 1 509 Kbps
Channel(s)                               : 6 channels
Channel positions                        : Front: L C R, Side: L R, LFE
Sampling rate                            : 48.0 KHz
Bit depth                                : 24 bits
Compression mode                         : Lossy
Stream size                              : 1 002 MiB (15%)
Title                                    : German DTS 5.1 @ 1 509 Kbps
Language                                 : German
Default                                  : Yes
Forced                                   : No

Audio #2
ID                                       : 3
Format                                   : DTS
Format/Info                              : Digital Theater Systems
Mode                                     : 16
Format settings, Endianness              : Big
Codec ID                                 : A_DTS
Duration                                 : 1h 32mn
Bit rate mode                            : Constant
Bit rate                                 : 1 509 Kbps
Channel(s)                               : 6 channels
Channel positions                        : Front: L C R, Side: L R, LFE
Sampling rate                            : 48.0 KHz
Bit depth                                : 24 bits
Compression mode                         : Lossy
Stream size                              : 1 002 MiB (15%)
Title                                    : English DTS 5.1 @ 1 509 Kbps
Language                                 : English
Default                                  : No
Forced                                   : No

Text
ID                                       : 4
Format                                   : UTF-8
Codec ID                                 : S_TEXT/UTF8
Codec ID/Info                            : UTF-8 Plain Text
Title                                    : ger_forced.srt
Language                                 : German
Default                                  : Yes
Forced                                   : Yes


Download:
Share Online Share OnlineShare OnlineShare Online
 

Kommentare