Watch now! | XBOX 360 | HistoryczneMonthly Music Series | ソーシャル | Mckenna Grace
 


 

Filecrypt zeigt vereinzelt Files als "n/a". Die Downloads sind trotzdem komplett.

DNS SERVER AENDERNum der staatlichen Zensur zu umgehen. Sollten wir von eurem Provider geseprrt werden, nutzt den TOR BROWSER oder ändert euren DNS SERVER.

Filmwünsche können bei uns im Forum abgegeben werden

Wir Speichern Nicht




 
 
 
Top Releases
Summer.Of.84.GERMAN.2018.DL....
Summer.Of.84.GERMAN.2018.DL....
Summer.of.84.2018.German.AC3...
Burning.2.On.Ice.2016.GERMAN...
Abgang.mit.Stil.2017.German....
Burning.2.On.Ice.2016.GERMAN...
Burning.2.On.Ice.2016.GERMAN...
Burning.2.On.Ice.2016.GERMAN...
Constantine.City.of.Demons.2...
Wie.der.Vater.2018.German.AC...

Cinedubs
211.Cops.Under.Fire.2018.Ger...
211.Cops.Under.Fire.2018.Ger...
The.Watcher.Willkommen.im.Mo...
The.Watcher.Willkommen.im.Mo...
MEG.Biss.bald.2018.German.AC...
MEG.Biss.bald.2018.German.AC...
Mamma.Mia.2.Here.We.Go.Again...
Mamma.Mia.2.Here.We.Go.Again...
Ant-Man.and.the.Wasp.2018.Ge...
Ant-Man.and.the.Wasp.2018.Ge...

Neuerscheinungen 2017-18
Death.Race.4.Beyond.Anarchy....
Death.Race.4.Beyond.Anarchy....
Super.Heroes.Aquaman.Rage.of...
Sick.for.Toys.2018.German.DL...
Presence.Es.ist.hier.2015.MU...
Gods.of.Egypt.2016.German.AC...
Haensel.und.Gretel.Hexenjaeg...
Nach.einer.wahren.Geschichte...
Sahara.2017.German.AC3.DL.10...
Nach.einer.wahren.Geschichte...

XXX
Yonitale.18.10.05.Christin.Y...
TrueAnal.18.09.30.Ana.Foxxx....
Throated.18.10.05.Eliza.Ibar...
Yonitale.18.10.03.Katya.Clov...
WankItNow.17.11.20.Ruby.Summ...
ThisGirlSucks.18.10.03.Augus...
WankItNow.18.09.30.Georgie.L...
WankItNow.18.10.02.Roxy.R.I....
WildOnCam.18.10.01.Kate.Kenn...
WebYoung.18.10.05.Adria.Rae....
WcpClub.18.10.05.Sexfeene.Ro...
Yanks.18.10.04.Penny.Lay.And...
WankItNow.18.10.01.Jamie.T.J...
Tiny4K.18.10.04.Addee.Kate.P...
WetAndPissy.18.10.02.Emma.De...
WhiteGhetto.18.10.02.Raylene...
TrickyOldTeacher.18.10.04.Ma...
X-Art.18.09.30.Kendall.Rae.A...
WickedPictures.Squirt.XXX.72...
WickedPictures.Squirt.XXX.10...

3D
Jurassic.World.Das.gefallene...
Jurassic.World.Das.gefallene...
Best.of.3D.vol.10.-.12.GERMA...
Die.Biene.Maja.2.Die.Honigsp...
Sharknado.6.The.Last.One.3D....
Solo.A.Star.Wars.Story.3D.20...
Solo.A.Star.Wars.Story.3D.20...
Die.Biene.Maja.2.Die.Honigsp...
Avengers.Infinity.War.3D.201...
Avengers.Infinity.War.3D.201...
Rampage.Big.Meets.Bigger.3D....
Rampage.Big.Meets.Bigger.3D....
Rampage.Big.Meets.Bigger.3D....
Winter.Games.3D.2013.DUAL.CO...
Tomb.Raider.3D.2018.German.7...

Old_Stuff
Britney.Spears.Live.The.Femm...
Buffy.The.Vampire.Slayer.199...
IMAX.Ride.Around.The.World.2...
Schimanski.-.Duisburg.Ruhror...
Akte.X.S02.German.DTS.DL.108...
How.I.Met.Your.Mother.S02.Ge...
Akte.X.S01.German.DTS.DL.108...
Den.Himmel.gibts.echt.DL.108...
Vikings.S02.German.DL.1080p....
Be.Kind.Rewind.Abgedreht.200...
Be.Kind.Rewind.Abgedreht.200...
Dracula.The.Dark.Lord.2012.G...
21.2008.German.DL.1080p.BluR...
Achtung.fertig.WK.Swissgerma...
The.Ouija.Exorcism.2015.MULT...

Filme
An.American.Werewolf.in.Lond...
Die.Simpsons.S29.GERMAN.DUBB...
Legends.of.Tomorrow.S03.GERM...
Better.Call.Saul.S04.COMPLET...
Vergessene.Welt.Jurassic.Par...
Stiefbrueder.2008.UNRATED.Ge...
Hellbound.Hellraiser.II.Rema...
Jurassic.Park.1993.German.AC...
Kubo.Der.tapfere.Samurai.201...
Die.mit.der.Liebe.spielen.19...
Die.mit.der.Liebe.spielen.19...
Management.2008.German.AC3.D...
Hook.1991.German.DL.2160p.UH...
Shutter.Island.2010.German.D...
Macho.Man.2015.German.AC3.10...
Big.Game.Die.Jagd.beginnt.20...
The.Big.Bang.Theory.S11.Germ...
The.Big.Bang.Theory.S11.Germ...
Better.Call.Saul.S04.COMPLET...
Das.Alibi.Spiel.der.Macht.20...
Catch-22.1970.German.AC3D.DL...
Jurassic.World.Das.gefallene...
Fannys.Reise.2016.GERMAN.DL....
The.Butcher.Boy.-.Der.Schlae...

 
 
The.Watcher.Willkommen.im.Motor.Way.Motel.German.AC3D.DL.1080p.BluRay.x264-PS

Jahr: 2018
Genre: Thriller
Sprache: Deutsch AC3 | Englisch DTS
Laufzeit: 1h 43mn
Bitrate: 10.8 Mbps
Format: MKV
Größe: 7.81 GiB
Release:

Beschreibung:

Nach einer Familientragödie wagen Ray und Maggie einen Neuanfang. In der Wüste von Arizona kaufen sie ein Motel. Ray entdeckt einen geheimen Raum, von dem aus man die Vorgänge in einem bestimmten Zimmer beobachten kann. Ray kann nicht widerstehen und wird Zeuge perverser Sexspiele, was ihn noch introvertierter und verschlossener werden lässt. Als in dem Zimmer eine Leiche zurückgelassen wird, meldet sich auch die Polizei, und alsbald befindet sich Ray in Schwierigkeiten.



Complete name                            : ps-watcher.bdrip.webaudio.1080.mkv
Format                                   : Matroska
Format version                           : Version 4 / Version 2
File size                                : 7.81 GiB
Duration                                 : 1h 43mn
Overall bit rate                         : 10.8 Mbps
Encoded date                             : UTC 2018-10-09 14:33:00
Writing application                      : mkvmerge v8.0.0 ('Til The Day That I Die') 64bit
Writing library                          : libebml v1.3.1 + libmatroska v1.4.2
DURATION                                 : 01:43:38.720000000
NUMBER_OF_FRAMES                         : 194335
NUMBER_OF_BYTES                          : 174124160
_STATISTICS_WRITING_APP                  : mkvmerge v8.0.0 ('Til The Day That I Die') 64bit
_STATISTICS_WRITING_DATE_UTC             : 2018-10-09 14:33:00
_STATISTICS_TAGS                         : BPS DURATION NUMBER_OF_FRAMES NUMBER_OF_BYTES

Video
ID                                       : 1
Format                                   : AVC
Format/Info                              : Advanced Video Codec
Format profile                           : [email protected]
Format settings, CABAC                   : Yes
Format settings, ReFrames                : 4 frames
Codec ID                                 : V_MPEG4/ISO/AVC
Duration                                 : 1h 43mn
Bit rate                                 : 9 059 Kbps
Width                                    : 1 920 pixels
Height                                   : 1 080 pixels
Display aspect ratio                     : 16:9
Frame rate mode                          : Constant
Frame rate                               : 23.976 fps
Color space                              : YUV
Chroma subsampling                       : 4:2:0
Bit depth                                : 8 bits
Scan type                                : Progressive
Bits/(Pixel*Frame)                       : 0.182
Stream size                              : 6.40 GiB (82%)
Writing library                          : x264 core 155 r2901 7d0ff22
Encoding settings                        : cabac=1 / ref=4 / deblock=1:-3:-3 / analyse=0x3:0x113 / me=umh / subme=8 / psy=1 / psy_rd=1.00:0.00 / mixed_ref=1 / me_range=32 / chroma_me=1 / trellis=1 / 8x8dct=1 / cqm=0 / deadzone=21,11 / fast_pskip=1 / chroma_qp_offset=-2 / threads=24 / lookahead_threads=4 / sliced_threads=0 / nr=0 / decimate=1 / interlaced=0 / bluray_compat=0 / constrained_intra=0 / bframes=3 / b_pyramid=2 / b_adapt=2 / b_bias=0 / direct=3 / weightb=1 / open_gop=0 / weightp=2 / keyint=240 / keyint_min=24 / scenecut=40 / intra_refresh=0 / rc_lookahead=50 / rc=2pass / mbtree=1 / bitrate=9059 / ratetol=1.0 / qcomp=0.60 / qpmin=0 / qpmax=69 / qpstep=4 / cplxblur=20.0 / qblur=0.5 / ip_ratio=1.40 / aq=3:0.80
Default                                  : Yes
Forced                                   : No
DURATION                                 : 01:43:38.671000000
NUMBER_OF_FRAMES                         : 149099
NUMBER_OF_BYTES                          : 7036482449
_STATISTICS_WRITING_APP                  : mkvmerge v8.0.0 ('Til The Day That I Die') 64bit
_STATISTICS_WRITING_DATE_UTC             : 2018-10-09 14:33:00
_STATISTICS_TAGS                         : BPS DURATION NUMBER_OF_FRAMES NUMBER_OF_BYTES

Audio #1
ID                                       : 2
Format                                   : AC-3
Format/Info                              : Audio Coding 3
Mode extension                           : CM (complete main)
Format settings, Endianness              : Big
Codec ID                                 : A_AC3
Duration                                 : 1h 43mn
Bit rate mode                            : Constant
Bit rate                                 : 224 Kbps
Channel(s)                               : 2 channels
Channel positions                        : Front: L R
Sampling rate                            : 48.0 KHz
Bit depth                                : 16 bits
Compression mode                         : Lossy
Stream size                              : 166 MiB (2%)
Language                                 : German
Default                                  : Yes
Forced                                   : Yes
DURATION                                 : 01:43:38.667000000
NUMBER_OF_FRAMES                         : 583000
NUMBER_OF_BYTES                          : 1172996000
_STATISTICS_WRITING_APP                  : mkvmerge v8.0.0 ('Til The Day That I Die') 64bit
_STATISTICS_WRITING_DATE_UTC             : 2018-10-09 14:33:00
_STATISTICS_TAGS                         : BPS DURATION NUMBER_OF_FRAMES NUMBER_OF_BYTES

Audio #2
ID                                       : 3
Format                                   : DTS
Format/Info                              : Digital Theater Systems
Mode                                     : 16
Format settings, Endianness              : Big
Codec ID                                 : A_DTS
Duration                                 : 1h 43mn
Bit rate mode                            : Constant
Bit rate                                 : 1 509 Kbps
Channel(s)                               : 6 channels
Channel positions                        : Front: L C R, Side: L R, LFE
Sampling rate                            : 48.0 KHz
Bit depth                                : 24 bits
Compression mode                         : Lossy
Stream size                              : 1.09 GiB (14%)
Language                                 : English
Default                                  : No
Forced                                   : No
DURATION                                 : 01:37:48.571000000
NUMBER_OF_FRAMES                         : 870
NUMBER_OF_BYTES                          : 29564
_STATISTICS_WRITING_APP                  : mkvmerge v8.0.0 ('Til The Day That I Die') 64bit
_STATISTICS_WRITING_DATE_UTC             : 2018-10-09 14:33:00
_STATISTICS_TAGS                         : BPS DURATION NUMBER_OF_FRAMES NUMBER_OF_BYTES

Text
ID                                       : 4
Format                                   : UTF-8
Codec ID                                 : S_TEXT/UTF8
Codec ID/Info                            : UTF-8 Plain Text
Language                                 : English
Default                                  : No
Forced                                   : No


Download:
Share Online Share OnlineShare OnlineShare Online
 

Kommentare