Eighth Grade | Road to Hell | SmallvilleFOLGE 194 - UND DIE ZEITREISENDE | The Space Kidettes | Filmes Onlinex
 


 

Filecrypt zeigt vereinzelt Files als "n/a". Die Downloads sind trotzdem komplett.

DNS SERVER AENDERNum der staatlichen Zensur zu umgehen. Sollten wir von eurem Provider geseprrt werden, nutzt den TOR BROWSER oder ändert euren DNS SERVER.

Filmwünsche können bei uns im Forum abgegeben werden

Wir Speichern Nicht




 
 
 
Top Releases
Constantine.City.of.Demons.2...
Wie.der.Vater.2018.German.AC...
Private.Life.2018.German.AC3...
Tully.2018.German.AC3.DL.108...
Money.Monster.2016.German.AC...
Tully.2018.German.DL.1080p.B...
Summer.of.84.2018.German.DL....
Summer.of.84.2018.German.DL....
Summer.of.84.2018.German.DL....
Letztendlich.sind.wir.dem.Un...

Cinedubs
Ant-Man.and.the.Wasp.2018.Ge...
Ant-Man.and.the.Wasp.2018.Ge...
Ant-Man.and.the.Wasp.German....
Ant-Man.and.the.Wasp.German....
Ant-Man.and.the.Wasp.2018.Ge...
Ant-Man.and.the.Wasp.2018.Ge...
Skyscraper.German.DL.AC3.Dub...
Skyscraper.German.DL.AC3.Dub...
Hotel.Artemis.2018.GERMAN.DL...
Hotel.Artemis.2018.GERMAN.DL...

Neuerscheinungen 2017-18
Sick.for.Toys.2018.German.DL...
Presence.Es.ist.hier.2015.MU...
Gods.of.Egypt.2016.German.AC...
Haensel.und.Gretel.Hexenjaeg...
Nach.einer.wahren.Geschichte...
Sahara.2017.German.AC3.DL.10...
Nach.einer.wahren.Geschichte...
Ab.nach.Deutschland.2015.Ger...
Ab.nach.Deutschland.2015.Ger...
Triassic.World.2018.German.D...

XXX
1By-Day.18.10.03.Amirah.XXX....
Anilos.18.10.04.Elen.Million...
AuntJudys.18.10.01.Afeena.Fi...
ALSScan.18.10.05.Paisley.Rae...
AmateurCFNM.18.10.02.Amy.And...
AllInternal.18.10.03.Vyvan.H...
Babes.18.10.05.Katana.Kombat...
BadDaddyPOV.18.10.05.Daisy.S...
Anilos.18.10.02.Diana.Gold.M...
AuntJudys.18.10.04.Afeena.Ge...
BackroomCastingCouch.18.10.0...
AnalTeenAngels.18.10.02.Mick...
ATKHairy.18.09.29.Niki.Snow....
SO.CAL.Swingers.Club.2.XXX.1...
WankItNow.17.10.22.Scarlett....
TheLifeErotic.18.09.18.Emyli...
WankItNow.17.10.22.Skyler.Mc...
WankItNow.17.10.24.Anna.Bell...
PrivateCasting-X.18.09.09.So...
Spizoo.18.09.17.Norah.Nova.O...

3D
Jurassic.World.Das.gefallene...
Jurassic.World.Das.gefallene...
Best.of.3D.vol.10.-.12.GERMA...
Die.Biene.Maja.2.Die.Honigsp...
Sharknado.6.The.Last.One.3D....
Solo.A.Star.Wars.Story.3D.20...
Solo.A.Star.Wars.Story.3D.20...
Die.Biene.Maja.2.Die.Honigsp...
Avengers.Infinity.War.3D.201...
Avengers.Infinity.War.3D.201...
Rampage.Big.Meets.Bigger.3D....
Rampage.Big.Meets.Bigger.3D....
Rampage.Big.Meets.Bigger.3D....
Winter.Games.3D.2013.DUAL.CO...
Tomb.Raider.3D.2018.German.7...

Old_Stuff
Britney.Spears.Live.The.Femm...
Buffy.The.Vampire.Slayer.199...
IMAX.Ride.Around.The.World.2...
Schimanski.-.Duisburg.Ruhror...
Akte.X.S02.German.DTS.DL.108...
How.I.Met.Your.Mother.S02.Ge...
Akte.X.S01.German.DTS.DL.108...
Den.Himmel.gibts.echt.DL.108...
Vikings.S02.German.DL.1080p....
Be.Kind.Rewind.Abgedreht.200...
Be.Kind.Rewind.Abgedreht.200...
Dracula.The.Dark.Lord.2012.G...
21.2008.German.DL.1080p.BluR...
Achtung.fertig.WK.Swissgerma...
The.Ouija.Exorcism.2015.MULT...

Filme
Jason.und.die.Argonauten.Jas...
Supernatural.S13.DL.DD51.Dub...
Supernatural.S13.DL.DD51.Dub...
The.Walking.Dead.S09.GERMAN....
The.Walking.Dead.S09.GERMAN....
Tallulah.2016.German.AC3.DL....
Chiko.2008.German.AC3.1080p....
Plane.Dead.Zombies.on.a.Plan...
Wild.Tales.2014.German.DL.10...
The.Founder.German.DL.1080p....
Kill.Switch.Two.Worlds.Colli...
True.Crime.Ein.wahres.Verbre...
Spy.Daddy.2010.German.DL.DTS...
Resident.Evil.Vendetta.2017....
Stiefbrueder.2008.UNRATED.Ge...
Tully.2018.German.DTS.DL.108...
Hellraiser.I.Remastered.1987...
Schuld.daran.ist.Rio.1984.Ge...
Schuld.daran.ist.Rio.1984.Ge...
Ronin.1998.REMASTERED.German...
The.Founder.2016.German.DTS....
The.Curse.of.Sleeping.Beauty...
Spectral.2016.German.AC3.DL....
Totgemacht.-.The.Alzheimer.C...

 
 
Jason.und.die.Argonauten.Jason.and.the.Argonauts.1963.German.AC3D.DL.1080p.US.BluRay.x265-FuN

Jahr: 1963
Genre: Abenteuer, Familie
Sprache: Deutsch AC3 | Englisch AC3
Laufzeit: 1h 43mn
Bitrate: 4 436 Kbps
Format: MKV
Größe: 3.22 GiB
Release:

Beschreibung:

Der titelgebende griechische Held Jason ist auf der Suche nach dem goldenen Vlies und führt die Argonauten dabei in eine Welt voller Ungeheuer und Gefahren. So muss sowohl die siebenköpfige Hydra bezwungen werden, als auch der unbesiegbare Bronzegott.



Complete name                            : Jason.und.die.Argonauten.x265.mkv
Format                                   : Matroska
Format version                           : Version 4 / Version 2
File size                                : 3.22 GiB
Duration                                 : 1h 43mn
Overall bit rate                         : 4 436 Kbps
Movie name                               : Jason and the Argonauts
Encoded date                             : UTC 2018-02-02T23:28:02Z
Writing application                      : HandBrake 1.0.7 2017040900
Writing library                          : Lavf57.7.2

Video
ID                                       : 1
Format                                   : HEVC
Format/Info                              : High Efficiency Video Coding
Format profile                           : [email protected]
Codec ID                                 : V_MPEGH/ISO/HEVC
Duration                                 : 1h 43mn
Bit rate                                 : 3 579 Kbps
Width                                    : 1 804 pixels
Height                                   : 1 080 pixels
Display aspect ratio                     : 1.670
Frame rate mode                          : Constant
Frame rate                               : 23.976 fps
Color space                              : YUV
Chroma subsampling                       : 4:2:0
Bit depth                                : 8 bits
Bits/(Pixel*Frame)                       : 0.077
Stream size                              : 2.60 GiB (81%)
Writing library                          : x265 2.1:[Windows][GCC 5.3.1][64 bit] 8bit
Encoding settings                        : wpp / ctu=64 / min-cu-size=8 / max-tu-size=32 / tu-intra-depth=1 / tu-inter-depth=1 / me=1 / subme=2 / merange=57 / no-rect / no-amp / max-merge=2 / temporal-mvp / no-early-skip / rskip / rdpenalty=0 / no-tskip / no-tskip-fast / no-strong-intra-smoothing / no-lossless / no-cu-lossless / no-constrained-intra / no-fast-intra / open-gop / no-temporal-layers / interlace=0 / keyint=240 / min-keyint=24 / scenecut=40 / rc-lookahead=20 / lookahead-slices=6 / bframes=4 / bframe-bias=0 / b-adapt=2 / ref=3 / limit-refs=3 / no-limit-modes / weightp / no-weightb / aq-mode=1 / qg-size=32 / aq-strength=0.00 / cbqpoffs=0 / crqpoffs=0 / rd=3 / psy-rd=0.00 / rdoq-level=0 / psy-rdoq=0.00 / log2-max-poc-lsb=8 / no-rd-refine / signhide / deblock=0:0 / no-sao / no-sao-non-deblock / b-pyramid / cutree / no-intra-refresh / rc=crf / crf=23.0 / qcomp=0.60 / qpmin=0 / qpmax=69 / qpstep=4 / ipratio=1.40 / pbratio=1.30
Default                                  : Yes
Forced                                   : No

Audio #1
ID                                       : 2
Format                                   : AC-3
Format/Info                              : Audio Coding 3
Mode extension                           : CM (complete main)
Format settings, Endianness              : Big
Codec ID                                 : A_AC3
Duration                                 : 1h 43mn
Bit rate mode                            : Constant
Bit rate                                 : 384 Kbps
Channel(s)                               : 2 channels
Channel positions                        : Front: L R
Sampling rate                            : 48.0 KHz
Bit depth                                : 16 bits
Compression mode                         : Lossy
Delay relative to video                  : -5ms
Stream size                              : 285 MiB (9%)
Title                                    : Stereo
Language                                 : German
Default                                  : Yes
Forced                                   : No

Audio #2
ID                                       : 3
Format                                   : AC-3
Format/Info                              : Audio Coding 3
Mode extension                           : CM (complete main)
Format settings, Endianness              : Big
Codec ID                                 : A_AC3
Duration                                 : 1h 43mn
Bit rate mode                            : Constant
Bit rate                                 : 384 Kbps
Channel(s)                               : 6 channels
Channel positions                        : Front: L C R, Side: L R, LFE
Sampling rate                            : 48.0 KHz
Bit depth                                : 16 bits
Compression mode                         : Lossy
Delay relative to video                  : -5ms
Stream size                              : 285 MiB (9%)
Title                                    : Surround
Language                                 : English
Default                                  : No
Forced                                   : No


Download:
Share Online Share OnlineShare OnlineShare Online
 

Kommentare