Truefire Brad Carlton's Guitar Lab Smooth Jazz Power Chords 2015 TUTORiAL | Material Girl | CloudFlareمشاهدة فيلم 12Strong 2018 مترجم اون لاين 2018 BLURAY IMDB 7 مشاهدة فيلم 12Strong 2018 مترجم اون لاين اكشن مشاهدة تحميل فيلم الدراما و الحرب التاريخي 12Strong 2018 مترجم للعربية – بطولة كريس هيمسورث ، إلسا باتاكي ، تايلور شيريدان... | Alonzo – 100% - 2017 | Le Furet
 


 

Filecrypt zeigt vereinzelt Files als "n/a". Die Downloads sind trotzdem komplett.

DNS SERVER AENDERNum der staatlichen Zensur zu umgehen. Sollten wir von eurem Provider geseprrt werden, nutzt den TOR BROWSER oder ändert euren DNS SERVER.

Filmwünsche können bei uns im Forum abgegeben werden

Wir Speichern Nicht




 
 
 
Top Releases
Summer.of.84.2018.German.DL....
Summer.of.84.2018.German.DL....
Summer.of.84.2018.German.DL....
Letztendlich.sind.wir.dem.Un...
Imperial.Dreams.2014.German....
Bad.Samaritan.Im.Visier.des....
3.Tage.in.Quiberon.2018.Germ...
The.12th.Man.Kampf.ums.Ueber...
To.All.the.Boys.Ive.Loved.Be...
Breakfast.on.Pluto.2005.Germ...

Cinedubs
Ant-Man.and.the.Wasp.2018.Ge...
Ant-Man.and.the.Wasp.2018.Ge...
Ant-Man.and.the.Wasp.German....
Ant-Man.and.the.Wasp.German....
Ant-Man.and.the.Wasp.2018.Ge...
Ant-Man.and.the.Wasp.2018.Ge...
Skyscraper.German.DL.AC3.Dub...
Skyscraper.German.DL.AC3.Dub...
Hotel.Artemis.2018.GERMAN.DL...
Hotel.Artemis.2018.GERMAN.DL...

Neuerscheinungen 2017-18
Nach.einer.wahren.Geschichte...
Sahara.2017.German.AC3.DL.10...
Nach.einer.wahren.Geschichte...
Ab.nach.Deutschland.2015.Ger...
Ab.nach.Deutschland.2015.Ger...
Triassic.World.2018.German.D...
Havoc.Playing.with.Death.Pla...
Elvira.Herrscherin.der.Dunke...
Fuenf.Freunde.und.das.Tal.de...
Regression.2015.German.AC3.D...

XXX
WankItNow.18.09.09.Mia.Bad.G...
WoodmanCastingX.18.08.28.Coc...
RKPrime.18.09.19.Francys.Bel...
Tiny.Titties.XXX.1080p.WEBRi...
Torn.XXX.1080p.WEBRip.MP4-VS...
WankItNow.18.09.10.Lola.Rae....
xChimera.18.09.09.Tiffany.Ta...
ReadyOrNotHereICum.18.09.19....
VIPArea.18.09.10.Randy.Moore...
PornMegaLoad.18.09.18.Lorna....
PornMegaLoad.18.09.17.Casey....
PureCFNM.18.09.18.Beg.For.It...
TonightsGirlfriend.18.09.07....
Throated.18.09.07.Natasha.St...
PublicDisgrace.18.09.17.Lady...
WebYoung.18.09.07.Karlee.Gre...
WildOnCam.18.09.10.Michele.J...
WoodmanCastingX.18.09.02.Rub...
PublicAgent.18.09.18.Amarant...
RKPrime.18.09.17.Nicolette.S...

3D
Jurassic.World.Das.gefallene...
Jurassic.World.Das.gefallene...
Best.of.3D.vol.10.-.12.GERMA...
Die.Biene.Maja.2.Die.Honigsp...
Sharknado.6.The.Last.One.3D....
Solo.A.Star.Wars.Story.3D.20...
Solo.A.Star.Wars.Story.3D.20...
Die.Biene.Maja.2.Die.Honigsp...
Avengers.Infinity.War.3D.201...
Avengers.Infinity.War.3D.201...
Rampage.Big.Meets.Bigger.3D....
Rampage.Big.Meets.Bigger.3D....
Rampage.Big.Meets.Bigger.3D....
Winter.Games.3D.2013.DUAL.CO...
Tomb.Raider.3D.2018.German.7...

Old_Stuff
Britney.Spears.Live.The.Femm...
Buffy.The.Vampire.Slayer.199...
IMAX.Ride.Around.The.World.2...
Schimanski.-.Duisburg.Ruhror...
Akte.X.S02.German.DTS.DL.108...
How.I.Met.Your.Mother.S02.Ge...
Akte.X.S01.German.DTS.DL.108...
Den.Himmel.gibts.echt.DL.108...
Vikings.S02.German.DL.1080p....
Be.Kind.Rewind.Abgedreht.200...
Be.Kind.Rewind.Abgedreht.200...
Dracula.The.Dark.Lord.2012.G...
21.2008.German.DL.1080p.BluR...
Achtung.fertig.WK.Swissgerma...
The.Ouija.Exorcism.2015.MULT...

Filme
Shutter.Island.2010.German.D...
Shutter.Island.2010.German.D...
Schrift.des.Todes.Asiafassun...
Home.Ein.smektakulaerer.Trip...
Mad.City.1997.German.AC3D.DL...
Shutter.Island.2010.German.U...
Shutter.Island.2010.German.D...
The.Sect.1991.German.DL.1080...
Bra.Wars.Hollywoods.Affaere....
Kein.Platz.fuer.Eltern.1937....
Nachts.faellt.der.Schleier.1...
Texas.Chainsaw.UNRATED.GERMA...
Texas.Chainsaw.UNRATED.GERMA...
Terra.X.Faszination.Universu...
Pawo.2016.German.AC3.DL.1080...
Rampage.Big.meets.Bigger.201...
Boese.Bauten.Hitlers.Archite...
Loewengrube.1989.S01D01-3.S0...
ZDF.History.Die.Krake.-.Die....
Rampage.Big.meets.Bigger.201...
Perfect.World.1993.German.AC...
Winchester.Das.Haus.der.Verd...
Solo.A.Star.Wars.Story.2018....
Early.Man.Steinzeit.bereit.2...

 
 
Shutter.Island.2010.German.DL.1080p.BluRay.x264.iNTERNAL-VideoStar

Jahr: 2010
Genre: Drama | Mystery | Thriller
Sprache: Deutsch DTS | Englisch DTS
Laufzeit: 2h 18mn
Bitrate: 9 240 Kbps
Format: MKV
Größe: 8.93 GiB
Release:

Beschreibung:

Der US-Marshall Teddy Daniels (L. DiCaprio) reist 1954 mit seinem Partner Chuck Aule (M. Ruffalo) auf die Insel Shutter Island auf der sich eine psychiatrische Anstalt für Schwerverbrecher befindet. Dort ist eine Frau spurlos aus der Zelle verschwunden und sowohl das Personal als auch der Leiter Dr. Cawley (B. Kingsley) tappen im Dunkeln. Jedoch gestaltet sich die Ermittlungsarbeit als äußerst schwierig, da die Anstalt scheinbar etwas zu verbergen hat. Je näher Daniels der Lösung des Falls kommt, desto stärker regt sich in ihm der Verdacht, das die Verantwortlichen ihn von Shutter Island nicht wieder gehen lassen wollen …



Complete name                            : vs-shutter.island.1080p.mkv
Format                                   : Matroska
Format version                           : Version 4 / Version 2
File size                                : 8.93 GiB
Duration                                 : 2h 18mn
Overall bit rate                         : 9 240 Kbps
Encoded date                             : UTC 2017-01-02 02:52:36
Writing application                      : mkvmerge v9.7.1 ('Pandemonium') 64bit
Writing library                          : libebml v1.3.4 + libmatroska v1.4.5
DURATION                                 : 01:29:46.631000000
NUMBER_OF_FRAMES                         : 3
NUMBER_OF_BYTES                          : 69
_STATISTICS_WRITING_APP                  : mkvmerge v9.7.1 ('Pandemonium') 64bit
_STATISTICS_WRITING_DATE_UTC             : 2017-01-02 02:52:36
_STATISTICS_TAGS                         : BPS DURATION NUMBER_OF_FRAMES NUMBER_OF_BYTES

Video
ID                                       : 1
Format                                   : AVC
Format/Info                              : Advanced Video Codec
Format profile                           : [email protected]
Format settings, CABAC                   : Yes
Format settings, ReFrames                : 5 frames
Codec ID                                 : V_MPEG4/ISO/AVC
Duration                                 : 2h 18mn
Bit rate                                 : 6 038 Kbps
Width                                    : 1 920 pixels
Height                                   : 816 pixels
Display aspect ratio                     : 2.35:1
Frame rate mode                          : Constant
Frame rate                               : 23.976 fps
Color space                              : YUV
Chroma subsampling                       : 4:2:0
Bit depth                                : 8 bits
Scan type                                : Progressive
Bits/(Pixel*Frame)                       : 0.161
Stream size                              : 5.83 GiB (65%)
Writing library                          : x264 core 148 r2744 b97ae06
Encoding settings                        : cabac=1 / ref=5 / deblock=1:-1:-1 / analyse=0x3:0x133 / me=umh / subme=7 / psy=1 / psy_rd=1.00:0.15 / mixed_ref=1 / me_range=16 / chroma_me=1 / trellis=2 / 8x8dct=1 / cqm=0 / deadzone=21,11 / fast_pskip=0 / chroma_qp_offset=-3 / threads=6 / lookahead_threads=1 / sliced_threads=0 / nr=0 / decimate=1 / interlaced=0 / bluray_compat=0 / constrained_intra=0 / bframes=3 / b_pyramid=2 / b_adapt=2 / b_bias=0 / direct=3 / weightb=1 / open_gop=0 / weightp=2 / keyint=250 / keyint_min=23 / scenecut=40 / intra_refresh=0 / rc_lookahead=60 / rc=crf / mbtree=1 / crf=20.0 / qcomp=0.60 / qpmin=0 / qpmax=69 / qpstep=4 / ip_ratio=1.40 / aq=1:1.00
Default                                  : Yes
Forced                                   : No

Audio #1
ID                                       : 2
Format                                   : DTS
Format/Info                              : Digital Theater Systems
Mode                                     : 16
Format settings, Endianness              : Big
Codec ID                                 : A_DTS
Duration                                 : 2h 18mn
Bit rate mode                            : Constant
Bit rate                                 : 1 509 Kbps
Channel(s)                               : 6 channels
Channel positions                        : Front: L C R, Side: L R, LFE
Sampling rate                            : 48.0 KHz
Bit depth                                : 24 bits
Compression mode                         : Lossy
Stream size                              : 1.46 GiB (16%)
Language                                 : German
Default                                  : Yes
Forced                                   : No

Audio #2
ID                                       : 3
Format                                   : DTS
Format/Info                              : Digital Theater Systems
Mode                                     : 16
Format settings, Endianness              : Big
Codec ID                                 : A_DTS
Duration                                 : 2h 18mn
Bit rate mode                            : Constant
Bit rate                                 : 1 509 Kbps
Channel(s)                               : 6 channels
Channel positions                        : Front: L C R, Side: L R, LFE
Sampling rate                            : 48.0 KHz
Bit depth                                : 24 bits
Compression mode                         : Lossy
Stream size                              : 1.46 GiB (16%)
Language                                 : English
Default                                  : No
Forced                                   : No

Text
ID                                       : 4
Format                                   : UTF-8
Codec ID                                 : S_TEXT/UTF8
Codec ID/Info                            : UTF-8 Plain Text
Title                                    : GER forced
Language                                 : German
Default                                  : Yes
Forced                                   : No


Download:
 

Kommentare