Eachtra’s Vocal Ambi | 脱皮爸爸 Shed Skin Papa 2018 1080p WEB-DL x264-BTxiaba 24 minutes | Arturo: El Millonario SeductorEin Fall für TKKG | Anurag Kashyap | Saturday Night Live Season 37 2011 - HD
 


 

Filecrypt zeigt vereinzelt Files als "n/a". Die Downloads sind trotzdem komplett.

DNS SERVER AENDERNum der staatlichen Zensur zu umgehen. Sollten wir von eurem Provider geseprrt werden, nutzt den TOR BROWSER oder ändert euren DNS SERVER.

Filmwünsche können bei uns im Forum abgegeben werden

Wir Speichern Nicht




 
 
 
Top Releases
Win.It.All.2017.German.DL.10...
Win.It.All.2017.German.DL.72...
Lucid.Dream.2017.German.AC3....
Win.It.All.2017.German.AC3.D...
Transit.2018.GERMAN.COMPLETE...
Crouching.Tiger.Hidden.Drago...
Tully.2018.German.DL.1080p.B...
Tully.2018.DUAL.COMPLETE.BLU...
Transit.2018.German.1080p.Bl...
Jadotville.2016.German.AC3.D...

Cinedubs
Ant-Man.and.the.Wasp.2018.Ge...
Ant-Man.and.the.Wasp.2018.Ge...
Ant-Man.and.the.Wasp.German....
Ant-Man.and.the.Wasp.German....
Ant-Man.and.the.Wasp.2018.Ge...
Ant-Man.and.the.Wasp.2018.Ge...
Skyscraper.German.DL.AC3.Dub...
Skyscraper.German.DL.AC3.Dub...
Hotel.Artemis.2018.GERMAN.DL...
Hotel.Artemis.2018.GERMAN.DL...

Neuerscheinungen 2017-18
Triassic.World.2018.German.D...
Havoc.Playing.with.Death.Pla...
Elvira.Herrscherin.der.Dunke...
Fuenf.Freunde.und.das.Tal.de...
Regression.2015.German.AC3.D...
Game.Over.Man.2018.German.AC...
The.Ridiculous.6.2017.German...
Havoc.Playing.with.Death.201...
Havoc.Playing.with.Death.201...
In.Wahrheit.Jette.ist.tot.20...

XXX
OldYoungLesbianLove.18.09.17...
Natalies.Gang.Bang.Party.XXX...
Pantyhosed4U.18.09.19.Tina.K...
Natalies.Gang.Bang.Party.XXX...
MySistersHotFriend.18.09.18....
NubileFilms.18.09.20.Alexa.G...
ATKHairy.18.09.17.Helen.Volg...
MyFriendsHotMom.18.09.20.Bri...
PlayboyPlus.18.09.16.Mashup....
PlayboyPlus.18.09.17.Kit.Rys...
Nubiles.18.09.18.Emma.Fantas...
PlumperPass.18.09.17.Asstyn....
Petite.18.09.19.Lenna.Lux.Le...
AbbyWinters.18.09.18.Rose.K....
OnlyBlowJob.18.09.20.Baby.Ni...
AbbyWinters.18.09.18.Sonya.I...
Nubiles.18.09.17.Mary.Lin.Uk...
Nubiles.18.09.18.Asuna.Fit.A...
InTheCrack.E1450.Lulu.Love.X...
NubileFilms.18.09.17.Veronic...

3D
Jurassic.World.Das.gefallene...
Jurassic.World.Das.gefallene...
Best.of.3D.vol.10.-.12.GERMA...
Die.Biene.Maja.2.Die.Honigsp...
Sharknado.6.The.Last.One.3D....
Solo.A.Star.Wars.Story.3D.20...
Solo.A.Star.Wars.Story.3D.20...
Die.Biene.Maja.2.Die.Honigsp...
Avengers.Infinity.War.3D.201...
Avengers.Infinity.War.3D.201...
Rampage.Big.Meets.Bigger.3D....
Rampage.Big.Meets.Bigger.3D....
Rampage.Big.Meets.Bigger.3D....
Winter.Games.3D.2013.DUAL.CO...
Tomb.Raider.3D.2018.German.7...

Old_Stuff
Britney.Spears.Live.The.Femm...
Buffy.The.Vampire.Slayer.199...
IMAX.Ride.Around.The.World.2...
Schimanski.-.Duisburg.Ruhror...
Akte.X.S02.German.DTS.DL.108...
How.I.Met.Your.Mother.S02.Ge...
Akte.X.S01.German.DTS.DL.108...
Den.Himmel.gibts.echt.DL.108...
Vikings.S02.German.DL.1080p....
Be.Kind.Rewind.Abgedreht.200...
Be.Kind.Rewind.Abgedreht.200...
Dracula.The.Dark.Lord.2012.G...
21.2008.German.DL.1080p.BluR...
Achtung.fertig.WK.Swissgerma...
The.Ouija.Exorcism.2015.MULT...

Filme
The.Broken.German.DL.1080p.B...
Keinohrhasen.2007.German.DTS...
Theater.des.Grauens.1973.Ger...
Robin.Hood.Koenig.der.Diebe....
Idiocracy.2006.German.AC3D.D...
Oscar.-.Vom.Regen.in.die.Tra...
Oscar.-.Vom.Regen.in.die.Tra...
Todespagode.des.gelben.Tiger...
Punisher.War.Zone.2008.Germa...
Punisher.War.Zone.2008.Germa...
King.Arthur.Excalibur.Rising...
King.Arthur.Excalibur.Rising...
Flammender.Stern.1960.German...
Congo.Wo.derMensch.zur.bedro...
Congo.Wo.der.Mensch.zur.bedr...
Wie.schmeckt.das.Blut.von.Dr...
Die.Sieben.Pranken.Des.Satan...
Die.Sieben.Pranken.Des.Satan...
Lionheart.Richard.Loewenherz...
Es.tanzt.die.Goettin.1944.Ge...
The.Originals.S05.GERMAN.720...
Marvels.Agents.of.S.H.I.E.L....
Marvels.Agents.of.S.H.I.E.L....
MotoGP.Moto2.Moto3.Saison.20...

 
 
The.Broken.German.DL.1080p.BluRay.x264-DEFUSED

Jahr: 2008
Genre: Drama, Horror, Thriller
Sprache: Deutsch DTS | Englisch DTS
Laufzeit: 1h 27mn
Bitrate: 14.4 Mbps
Format: MKV
Größe: 8.87 GiB
Release:

Beschreibung:

Radiologin Gina hat eine guten Job, einen netten Freund und eine Familie, die sie liebt. Urplötzlich jedoch gerät das Leben aus den Fugen, als sie auf dem Heimweg von der Arbeit einer Doppelgängerin zu begegnen glaubt. Gina folgt der Fremden, findet in deren Wohnung ein Foto von sich und ihrem Vater, und baut einen Autounfall, der ihr partiell das Gedächtnis raubt. Von nun an ist nichts mehr, wie es war: Selbst nahestehende Menschen kommen ihr fremd vor, und Eigentümliches scheint vorzugehen.



Complete name                            : The.Broken.German.DL.1080p.BluRay.x264-DEFUSED.mkv
Format                                   : Matroska
Format version                           : Version 1
File size                                : 8.87 GiB
Duration                                 : 1h 27mn
Overall bit rate                         : 14.4 Mbps
Writing application                      : x264.exe
Writing library                          : mkv2rls v1.0

Video
ID                                       : 1
Format                                   : AVC
Format/Info                              : Advanced Video Codec
Format profile                           : High@L4.1
Format settings, CABAC                   : Yes
Format settings, ReFrames                : 5 frames
Codec ID                                 : V_MPEG4/ISO/AVC
Duration                                 : 1h 27mn
Bit rate                                 : 11.1 Mbps
Width                                    : 1 920 pixels
Height                                   : 816 pixels
Display aspect ratio                     : 2.35:1
Frame rate mode                          : Constant
Frame rate                               : 24.000 fps
Color space                              : YUV
Chroma subsampling                       : 4:2:0
Bit depth                                : 8 bits
Scan type                                : Progressive
Bits/(Pixel*Frame)                       : 0.296
Stream size                              : 6.84 GiB (77%)
Writing library                          : x264 core 67 r1153 7b6ce6a
Encoding settings                        : cabac=1 / ref=5 / deblock=1:0:0 / analyse=0x3:0x113 / me=umh / subme=7 / psy_rd=1.0:0.0 / mixed_ref=1 / me_range=16 / chroma_me=1 / trellis=1 / 8x8dct=1 / cqm=0 / deadzone=21,11 / chroma_qp_offset=-2 / threads=6 / nr=0 / decimate=1 / mbaff=0 / bframes=3 / b_pyramid=1 / b_adapt=1 / b_bias=0 / direct=3 / wpredb=1 / keyint=250 / keyint_min=25 / scenecut=40 / rc=crf / crf=22.0 / qcomp=0.60 / qpmin=10 / qpmax=51 / qpstep=4 / ip_ratio=1.40 / pb_ratio=1.30 / aq=1:1.00
Language                                 : English
Default                                  : Yes
Forced                                   : No

Audio #1
ID                                       : 2
Format                                   : DTS
Format/Info                              : Digital Theater Systems
Mode                                     : 16
Format settings, Endianness              : Big
Codec ID                                 : A_DTS
Duration                                 : 1h 27mn
Bit rate mode                            : Constant
Bit rate                                 : 1 509 Kbps
Channel(s)                               : 6 channels
Channel positions                        : Front: L C R, Side: L R, LFE
Sampling rate                            : 48.0 KHz
Bit depth                                : 24 bits
Compression mode                         : Lossy
Stream size                              : 950 MiB (10%)
Title                                    : German DTS 1509kbps
Language                                 : German
Default                                  : Yes
Forced                                   : No

Audio #2
ID                                       : 3
Format                                   : DTS
Format/Info                              : Digital Theater Systems
Mode                                     : 16
Format settings, Endianness              : Big
Codec ID                                 : A_DTS
Duration                                 : 1h 27mn
Bit rate mode                            : Constant
Bit rate                                 : 1 509 Kbps
Channel(s)                               : 6 channels
Channel positions                        : Front: L C R, Side: L R, LFE
Sampling rate                            : 48.0 KHz
Bit depth                                : 24 bits
Compression mode                         : Lossy
Stream size                              : 950 MiB (10%)
Title                                    : English DTS 1509kbps
Language                                 : English
Default                                  : No
Forced                                   : No

Text
ID                                       : 4
Format                                   : UTF-8
Codec ID                                 : S_TEXT/UTF8
Codec ID/Info                            : UTF-8 Plain Text
Title                                    : German
Language                                 : German
Default                                  : Yes
Forced                                   : No


Download:
Share Online Share OnlineShare OnlineShare Online
 

Kommentare