Watch The Gifted Season 2 Episode 2 | Johnny Strong | WeiterlesenX-Men Orígenes: Lobezno | lồng tiếng việt | Waen Dok Mai 17.Bölüm 38195
 


 

DNS SERVER AENDERNum der staatlichen Zensur zu umgehen. Sollten wir von eurem Provider geseprrt werden, nutzt den TOR BROWSER oder ändert euren DNS SERVER.

Filmwünsche können bei uns im Forum abgegeben werden

Wir Speichern Nicht




 
 
 
Top Releases
Deidra.und.Laney.Diebstahl.a...
Deidra.und.Laney.Diebstahl.a...
Divines.2016.German.1080p.WE...
Divines.2016.German.720p.WEB...
Beasts.of.No.Nation.2015.Ger...
Beasts.of.No.Nation.2015.Ger...
Crouching.Tiger.Hidden.Drago...
Crouching.Tiger.Hidden.Drago...
Burning.Sands.2017.German.DL...
Burning.Sands.2017.German.DL...

Cinedubs
Skyscraper.German.DL.AC3.Dub...
Skyscraper.German.DL.AC3.Dub...
Hotel.Artemis.2018.GERMAN.DL...
Hotel.Artemis.2018.GERMAN.DL...
The.First.Purge.2018.German....
The.First.Purge.2018.German....
The.First.Purge.2018.German....
Hotel.Transsilvanien.3.Ein.M...
Hotel.Transsilvanien.3.Ein.M...
Hotel.Transsilvanien.3.Ein.M...

Neuerscheinungen 2017-18
Die.Muenzraub.AG.2017.German...
Die.Muenzraub.AG.2017.German...
Extinction.2018.German.DL.72...
Extinction.2018.German.DL.10...
Der.weite.Weg.der.Hoffnung.2...
Der.weite.Weg.der.Hoffnung.2...
Die.wahren.Memoiren.eines.in...
Die.wahren.Memoiren.eines.in...
Clinical.2017.German.DL.720p...
Clinical.2017.German.DL.1080...

XXX
TakeVan.18.09.17.Mila.Scream...
WetAndPissy.18.09.18.Stacy.S...
X-Angels.18.09.19.Lovita.Fat...
Yanks.18.09.20.Violet.Russo....
WildOnCam.18.09.18.Carter.Cr...
Submissived.18.09.17.Ivory.L...
SweetSinner.18.09.20.Gina.Va...
WickedPictures.Sex.Dreams.XX...
ZZSeries.18.09.18.Brazzers.H...
WildOnCam.18.09.19.Aria.Lee....
TeenFidelity.E336.Natalie.Br...
WildOnCam.18.09.20.Rachael.C...
SweetSinner.18.09.17.Penelop...
WetAndPuffy.18.09.19.Vinna.R...
WankItNow.17.10.28.Sophia.Sm...
TeacherFucksTeens.18.09.18.B...
WhenGirlsPlay.18.09.17.Ivy.W...
Watch4Beauty.18.09.17.Irene....
Young.Cumsluts.2.XXX.1080p.W...
WankItNow.17.10.29.Natalia.F...

3D
Sharknado.6.The.Last.One.3D....
Solo.A.Star.Wars.Story.3D.20...
Solo.A.Star.Wars.Story.3D.20...
Die.Biene.Maja.2.Die.Honigsp...
Avengers.Infinity.War.3D.201...
Avengers.Infinity.War.3D.201...
Rampage.Big.Meets.Bigger.3D....
Rampage.Big.Meets.Bigger.3D....
Rampage.Big.Meets.Bigger.3D....
Winter.Games.3D.2013.DUAL.CO...
Tomb.Raider.3D.2018.German.7...
Rampage.Big.Meets.Bigger.3D....
Rampage.Big.Meets.Bigger.3D....
Tomb.Raider.3D.2018.MULTi.CO...
Pacific.Rim.Uprising.3D.2018...

Old_Stuff
Britney.Spears.Live.The.Femm...
Buffy.The.Vampire.Slayer.199...
IMAX.Ride.Around.The.World.2...
Schimanski.-.Duisburg.Ruhror...
Akte.X.S02.German.DTS.DL.108...
How.I.Met.Your.Mother.S02.Ge...
Akte.X.S01.German.DTS.DL.108...
Den.Himmel.gibts.echt.DL.108...
Vikings.S02.German.DL.1080p....
Be.Kind.Rewind.Abgedreht.200...
Be.Kind.Rewind.Abgedreht.200...
Dracula.The.Dark.Lord.2012.G...
21.2008.German.DL.1080p.BluR...
Achtung.fertig.WK.Swissgerma...
The.Ouija.Exorcism.2015.MULT...

Filme
Fireflash.Der.Tag.nach.dem.E...
Russkies.1987.German.AC3D.DL...
El.Nino.Jagd.vor.Gibraltar.2...
The.Fast.and.the.Furious.200...
Amos.und.Andrew.Zwei.fast.pe...
Inside.Was.Sie.will.ist.in.d...
Die.Lachbombe.1954.German.AC...
Dont.Look.Now.Wenn.Die.Gonde...
Miss.Undercover.2.Fabelhaft....
Devils.Pass.2013.German.AC3....
Die.Abenteurerin.1941.German...
Heathers.1988.1080p.GBR.BD.A...
Rock.N.Roll.High.School.1979...
Der.Jahrestag.2018.German.DL...
Valdez.Is.Coming.1971.German...
Scenes.From.A.Mall.Ein.Ganz....
The.Outpost.S01.GERMAN.720p....
Snowfall.S02.German.DD51.Dub...
Once.Upon.a.Time.S07.German....
Der.Besessene.1961.German.DL...
Once.Upon.a.Time.S07.German....
Marvels.Agents.of.S.H.I.E.L....
Marvels.Agents.of.S.H.I.E.L....
Animal.Kingdom.S03.GERMAN.72...

 
 
Russkies.1987.German.AC3D.DL.1080p.AmazonHD.x265-FuN

Jahr: 1987
Genre: Drama
Sprache: Deutsch AC3 | Englisch AC3
Laufzeit: 1h 38mn
Bitrate: 4 088 Kbps
Format: MKV
Größe: 2.81 GiB
Release:

Beschreibung:

Danny, Adam und Jason sind drei ganz normale Jungs, die in einem Küstenstädchen in Südflorida leben. Wie alle anderen Einwohner glauben auch die drei Jungs, das Russland das Reich des Bösen ist. Eines Tages jedoch finden sie am Strand einen bewusstlosen russischen Matrosen. Zunächst wissen sie nicht, ob sie den Mann nicht lieber an die Polizei ausliefern sollen. Dann verstecken sie ihn aber doch zunächst bei sich im Keller. Nach anfänglichem Zögern merken die drei, das Mischa harmlos ist, und beschließen, dass sie ihm helfen wollen zu seinem Schiff zu kommen. Während alle anderen nach dem verschwundenen Soldaten suchen stellen sich Danny, Adam und Jason gegen die engstirnigen Auffassungen der Erwachsenen, verstecken Mischa vor den Behörden und machen ihn mit dem American Way of Life bekannt. Auch Dannys ältere Schwester Diane hat es Mischa angetan. Doch es kommt die Zeit, wo Mischa sich nicht mehr länger vor seinen Verfolgern verstecken kann und will.




Format                                   : Matroska
Format version                           : Version 4 / Version 2
File size                                : 2.81 GiB
Duration                                 : 1h 38mn
Overall bit rate                         : 4 088 Kbps
Movie name                               : Russkies 1987 German AC3D DL 1080p AmazonHD x264-iND
Encoded date                             : UTC 2018-09-11 13:29:57
Writing application                      : mkvmerge v20.0.0 ('I Am The Sun') 64-bit
Writing library                          : libebml v1.3.5 + libmatroska v1.4.8
DURATION                                 : 01:36:27.715000000
NUMBER_OF_FRAMES                         : 1473
NUMBER_OF_BYTES                          : 41147
_STATISTICS_WRITING_APP                  : mkvmerge v20.0.0 ('I Am The Sun') 64-bit
_STATISTICS_WRITING_DATE_UTC             : 2018-09-11 13:29:57
_STATISTICS_TAGS                         : BPS DURATION NUMBER_OF_FRAMES NUMBER_OF_BYTES

Video
ID                                       : 1
Format                                   : HEVC
Format/Info                              : High Efficiency Video Coding
Format profile                           : [email protected]
Codec ID                                 : V_MPEGH/ISO/HEVC
Duration                                 : 1h 38mn
Bit rate                                 : 3 558 Kbps
Width                                    : 1 920 pixels
Height                                   : 1 080 pixels
Display aspect ratio                     : 16:9
Frame rate mode                          : Constant
Frame rate                               : 23.976 fps
Color space                              : YUV
Chroma subsampling                       : 4:2:0
Bit depth                                : 8 bits
Bits/(Pixel*Frame)                       : 0.072
Stream size                              : 2.45 GiB (87%)
Title                                    : [email protected]
Writing library                          : x265 2.6:[Windows][GCC 7.3.0][64 bit] 8bit+10bit+12bit
Encoding settings                        : cpuid=1173503 / frame-threads=3 / numa-pools=8 / wpp / no-pmode / no-pme / no-psnr / no-ssim / log-level=2 / input-csp=1 / input-res=1920x1080 / interlace=0 / total-frames=0 / level-idc=0 / high-tier=1 / uhd-bd=0 / ref=3 / no-allow-non-conformance / no-repeat-headers / annexb / no-aud / no-hrd / info / hash=0 / no-temporal-layers / open-gop / min-keyint=24 / keyint=240 / bframes=4 / b-adapt=0 / b-pyramid / bframe-bias=0 / rc-lookahead=15 / lookahead-slices=6 / scenecut=40 / no-intra-refresh / ctu=64 / min-cu-size=8 / no-rect / no-amp / max-tu-size=32 / tu-inter-depth=1 / tu-intra-depth=1 / limit-tu=0 / rdoq-level=0 / dynamic-rd=0.00 / no-ssim-rd / signhide / no-tskip / nr-intra=0 / nr-inter=0 / no-constrained-intra / no-strong-intra-smoothing / max-merge=2 / limit-refs=3 / no-limit-modes / me=1 / subme=2 / merange=57 / temporal-mvp / weightp / no-weightb / no-analyze-src-pics / deblock=0:0 / no-sao / no-sao-non-deblock / rd=2 / no-early-skip / rskip / fast-intra / no-tskip-fast / no-cu-lossless / no-b-intra / no-splitrd-skip / rdpenalty=0 / psy-rd=2.00 / psy-rdoq=0.00 / no-rd-refine / analysis-reuse-mode=0 / no-lossless / cbqpoffs=0 / crqpoffs=0 / rc=crf / crf=23.0 / qcomp=0.60 / qpstep=4 / stats-write=0 / stats-read=0 / ipratio=1.40 / pbratio=1.30 / aq-mode=1 / aq-strength=1.00 / cutree / zone-count=0 / no-strict-cbr / qg-size=32 / no-rc-grain / qpmax=69 / qpmin=0 / no-const-vbv / sar=1 / overscan=0 / videoformat=5 / range=0 / colorprim=1 / transfer=1 / colormatrix=1 / chromaloc=0 / display-window=0 / max-cll=0,0 / min-luma=0 / max-luma=255 / log2-max-poc-lsb=8 / vui-timing-info / vui-hrd-info / slices=1 / no-opt-qp-pps / no-opt-ref-list-length-pps / no-multi-pass-opt-rps / scenecut-bias=0.05 / no-opt-cu-delta-qp / no-aq-motion / no-hdr / no-hdr-opt / no-dhdr10-opt / analysis-reuse-level=5 / scale-factor=0 / refine-intra=0 / refine-inter=0 / refine-mv=0 / no-limit-sao / ctu-info=0 / no-lowpass-dct / refine-mv-type=0 / copy-pic=1
Default                                  : Yes
Forced                                   : No
DURATION                                 : 01:38:34.033000000
NUMBER_OF_FRAMES                         : 141795
NUMBER_OF_BYTES                          : 2689062598
_STATISTICS_WRITING_APP                  : mkvmerge v20.0.0 ('I Am The Sun') 64-bit
_STATISTICS_WRITING_DATE_UTC             : 2018-09-11 13:29:57
_STATISTICS_TAGS                         : BPS DURATION NUMBER_OF_FRAMES NUMBER_OF_BYTES

Audio #1
ID                                       : 2
Format                                   : AC-3
Format/Info                              : Audio Coding 3
Mode extension                           : CM (complete main)
Format settings, Endianness              : Big
Codec ID                                 : A_AC3
Duration                                 : 1h 38mn
Bit rate mode                            : Constant
Bit rate                                 : 224 Kbps
Channel(s)                               : 2 channels
Channel positions                        : Front: L R
Sampling rate                            : 48.0 KHz
Bit depth                                : 16 bits
Compression mode                         : Lossy
Delay relative to video                  : -5ms
Stream size                              : 158 MiB (5%)
Title                                    : Stereo ([email protected])
Language                                 : German
Default                                  : Yes
Forced                                   : No
DURATION                                 : 01:38:33.984000000
NUMBER_OF_FRAMES                         : 184812
NUMBER_OF_BYTES                          : 165591552
_STATISTICS_WRITING_APP                  : mkvmerge v20.0.0 ('I Am The Sun') 64-bit
_STATISTICS_WRITING_DATE_UTC             : 2018-09-11 13:29:57
_STATISTICS_TAGS                         : BPS DURATION NUMBER_OF_FRAMES NUMBER_OF_BYTES

Audio #2
ID                                       : 3
Format                                   : AC-3
Format/Info                              : Audio Coding 3
Mode extension                           : CM (complete main)
Format settings, Endianness              : Big
Codec ID                                 : A_AC3
Duration                                 : 1h 38mn
Bit rate mode                            : Constant
Bit rate                                 : 224 Kbps
Channel(s)                               : 2 channels
Channel positions                        : Front: L R
Sampling rate                            : 48.0 KHz
Bit depth                                : 16 bits
Compression mode                         : Lossy
Stream size                              : 158 MiB (5%)
Title                                    : Stereo
Language                                 : English
Default                                  : No
Forced                                   : No

Text #1
ID                                       : 4
Format                                   : UTF-8
Codec ID                                 : S_TEXT/UTF8
Codec ID/Info                            : UTF-8 Plain Text
Language                                 : English
Default                                  : No
Forced                                   : No

Text #2
ID                                       : 5
Format                                   : UTF-8
Codec ID                                 : S_TEXT/UTF8
Codec ID/Info                            : UTF-8 Plain Text
Title                                    : SDH
Language                                 : English
Default                                  : No
Forced                                   : No



Download:
Share Online Share OnlineShare OnlineShare Online
 

Kommentare