La Maldición de la Casa Winchester | Tadanobu Asano | Games Torrents1 more rapidgator, uploadgig, nitroflare link | Blue Iguana (2017) | Read More
 


 

DNS SERVER AENDERNum der staatlichen Zensur zu umgehen. Sollten wir von eurem Provider geseprrt werden, nutzt den TOR BROWSER oder ändert euren DNS SERVER.

Filmwünsche können bei uns im Forum abgegeben werden

Wir Speichern Nicht




 
 
 
Top Releases
Beasts.of.No.Nation.2015.Ger...
Beasts.of.No.Nation.2015.Ger...
Crouching.Tiger.Hidden.Drago...
Crouching.Tiger.Hidden.Drago...
Burning.Sands.2017.German.DL...
Burning.Sands.2017.German.DL...
ARQ.2016.German.DL.720p.WEB....
ARQ.2016.German.DL.1080p.WEB...
Benji.2018.German.DL.720p.WE...
Benji.2018.German.DL.1080p.W...

Cinedubs
Skyscraper.German.DL.AC3.Dub...
Skyscraper.German.DL.AC3.Dub...
Hotel.Artemis.2018.GERMAN.DL...
Hotel.Artemis.2018.GERMAN.DL...
The.First.Purge.2018.German....
The.First.Purge.2018.German....
The.First.Purge.2018.German....
Hotel.Transsilvanien.3.Ein.M...
Hotel.Transsilvanien.3.Ein.M...
Hotel.Transsilvanien.3.Ein.M...

Neuerscheinungen 2017-18
Die.wahren.Memoiren.eines.in...
Die.wahren.Memoiren.eines.in...
Clinical.2017.German.DL.720p...
Clinical.2017.German.DL.1080...
Unter.Feuer.Under.Fire.1983....
Misirlou.2017.COMPLETE.BLURA...
Leviathan.2012.MULTi.COMPLET...
Tank.432.Es.gibt.kein.Zuruec...
Tank.432.Es.gibt.kein.Zuruec...
Hes.out.there.2018.German.72...

XXX
TakeVan.18.09.17.Mila.Scream...
WetAndPissy.18.09.18.Stacy.S...
X-Angels.18.09.19.Lovita.Fat...
Yanks.18.09.20.Violet.Russo....
WildOnCam.18.09.18.Carter.Cr...
Submissived.18.09.17.Ivory.L...
SweetSinner.18.09.20.Gina.Va...
WickedPictures.Sex.Dreams.XX...
ZZSeries.18.09.18.Brazzers.H...
WildOnCam.18.09.19.Aria.Lee....
TeenFidelity.E336.Natalie.Br...
WildOnCam.18.09.20.Rachael.C...
SweetSinner.18.09.17.Penelop...
WetAndPuffy.18.09.19.Vinna.R...
WankItNow.17.10.28.Sophia.Sm...
TeacherFucksTeens.18.09.18.B...
WhenGirlsPlay.18.09.17.Ivy.W...
Watch4Beauty.18.09.17.Irene....
Young.Cumsluts.2.XXX.1080p.W...
WankItNow.17.10.29.Natalia.F...

3D
Sharknado.6.The.Last.One.3D....
Solo.A.Star.Wars.Story.3D.20...
Solo.A.Star.Wars.Story.3D.20...
Die.Biene.Maja.2.Die.Honigsp...
Avengers.Infinity.War.3D.201...
Avengers.Infinity.War.3D.201...
Rampage.Big.Meets.Bigger.3D....
Rampage.Big.Meets.Bigger.3D....
Rampage.Big.Meets.Bigger.3D....
Winter.Games.3D.2013.DUAL.CO...
Tomb.Raider.3D.2018.German.7...
Rampage.Big.Meets.Bigger.3D....
Rampage.Big.Meets.Bigger.3D....
Tomb.Raider.3D.2018.MULTi.CO...
Pacific.Rim.Uprising.3D.2018...

Old_Stuff
Britney.Spears.Live.The.Femm...
Buffy.The.Vampire.Slayer.199...
IMAX.Ride.Around.The.World.2...
Schimanski.-.Duisburg.Ruhror...
Akte.X.S02.German.DTS.DL.108...
How.I.Met.Your.Mother.S02.Ge...
Akte.X.S01.German.DTS.DL.108...
Den.Himmel.gibts.echt.DL.108...
Vikings.S02.German.DL.1080p....
Be.Kind.Rewind.Abgedreht.200...
Be.Kind.Rewind.Abgedreht.200...
Dracula.The.Dark.Lord.2012.G...
21.2008.German.DL.1080p.BluR...
Achtung.fertig.WK.Swissgerma...
The.Ouija.Exorcism.2015.MULT...

Filme
Valdez.Is.Coming.1971.German...
Scenes.From.A.Mall.Ein.Ganz....
The.Outpost.S01.GERMAN.720p....
Snowfall.S02.German.DD51.Dub...
Once.Upon.a.Time.S07.German....
Der.Besessene.1961.German.DL...
Once.Upon.a.Time.S07.German....
Marvels.Agents.of.S.H.I.E.L....
Marvels.Agents.of.S.H.I.E.L....
Animal.Kingdom.S03.GERMAN.72...
Der.erste.und.der.letzte.Tag...
Solange.ich.atme.2017.German...
Formel.1.Saison.2018.GERMAN....
Anon.2018.German.Dubbed.RETA...
Anon.2018.German.Dubbed.RETA...
The.Bet.2006.German.DL.1080p...
The.Book.of.Eli.2010.German....
Elephant.White.2011.German.D...
The.Bell.Witch.Legend.2005.G...
The.Best.Exotic.Marigold.Hot...
The.Big.Bang.2011.German.DL....
The.Con.Artist.Hochstapler.p...
The.Chosen.2015.German.DL.10...
The.Big.White.Immer.Aerger.m...

 
 
Die.wahren.Memoiren.eines.internationalen.Killers.2016.German.DL.1080p.WEB.x264.iNTERNAL-BiGiNT

Jahr: 2016
Genre: Action , Komödie
Sprache: Deutsch AC3 | Englisch AC3
Laufzeit: 1h 38mn
Bitrate: 6 808 Kbps
Format: MKV
Größe: 4.68 GiB
Release:

Beschreibung:

Sam Larson (Kevin James) ist ein mit allen Wassern gewaschener Auftragskiller, der jeder noch so brenzligen Situation entkommt und zum Schluss, nachdem die letzte Explosion verraucht ist, das Mädchen kriegt. Der Haken: All die Abenteuer existieren nur in den Geschichten, die Larson schreibt, sein Protagonist ist Produkt einer Wunschfantasie. Doch dann wird der sanftmütige Buchhalter und Autor tatsächlich für einen Killer gehalten, als Larsons Verlegerin Kylie Applebaum (Kelen Coleman) seinen Roman über den international operierenden Attentäter in einem Online-Buchhandel als wahre Geschichte bewirbt. Larson passt das zunächst gar nicht. Und dabei weiß er noch nicht mal, welche Konsequenzen der Etikettenschwindel hat:  Das Buch verkauft sich prächtig – mit der Folge, dass Larson entführt, in ein fremdes Land verschleppt und in einen Mordkomplott verwickelt wird. Plötzlich ist er mittendrin in einer echten Agentengeschichte, Seite an Seite mit der Kämpferin Rosa Bolivar (Zulay Henao), die wirklich zuschlagen und mit Waffen umgehen kann...



die.wahren.memoiren.eines.internationalen.killers.2016.german.dl.1080p.web.x264.internal-bigint.mkv
Format                                   : Matroska
Format version                           : Version 4 / Version 2
File size                                : 4.68 GiB
Duration                                 : 1h 38mn
Overall bit rate mode                    : Variable
Overall bit rate                         : 6 808 Kbps
Encoded date                             : UTC 2018-09-28 19:25:41
Writing application                      : mkvmerge v22.0.0 ('At The End Of The World') 64-bit
Writing library                          : libebml v1.3.5 + libmatroska v1.4.8
DURATION                                 : 01:35:02.113000000
NUMBER_OF_FRAMES                         : 1559
NUMBER_OF_BYTES                          : 53263
_STATISTICS_WRITING_APP                  : mkvmerge v22.0.0 ('At The End Of The World') 64-bit
_STATISTICS_WRITING_DATE_UTC             : 2018-09-28 19:25:41
_STATISTICS_TAGS                         : BPS DURATION NUMBER_OF_FRAMES NUMBER_OF_BYTES

Video
ID                                       : 1
Format                                   : AVC
Format/Info                              : Advanced Video Codec
Format profile                           : [email protected]
Format settings, CABAC                   : Yes
Format settings, ReFrames                : 3 frames
Codec ID                                 : V_MPEG4/ISO/AVC
Duration                                 : 1h 38mn
Bit rate mode                            : Variable
Bit rate                                 : 5 620 Kbps
Maximum bit rate                         : 8 430 Kbps
Width                                    : 1 920 pixels
Height                                   : 1 080 pixels
Display aspect ratio                     : 16:9
Frame rate mode                          : Constant
Frame rate                               : 23.976 fps
Color space                              : YUV
Chroma subsampling                       : 4:2:0
Bit depth                                : 8 bits
Scan type                                : Progressive
Bits/(Pixel*Frame)                       : 0.113
Stream size                              : 3.71 GiB (79%)
Writing library                          : x264 core 118
Encoding settings                        : cabac=1 / ref=3 / deblock=1:0:0 / analyse=0x1:0x111 / me=umh / subme=10 / psy=1 / psy_rd=1.00:0.00 / mixed_ref=1 / me_range=24 / chroma_me=1 / trellis=2 / 8x8dct=0 / cqm=0 / deadzone=21,11 / fast_pskip=1 / chroma_qp_offset=-2 / threads=8 / sliced_threads=0 / nr=0 / decimate=1 / interlaced=0 / bluray_compat=0 / constrained_intra=0 / bframes=2 / b_pyramid=0 / b_adapt=2 / b_bias=0 / direct=3 / weightb=1 / open_gop=0 / weightp=2 / keyint=48 / keyint_min=25 / scenecut=0 / intra_refresh=0 / rc_lookahead=0 / rc=2pass / mbtree=1 / bitrate=5620 / ratetol=1.0 / qcomp=0.50 / qpmin=6 / qpmax=51 / qpstep=4 / cplxblur=20.0 / qblur=0.5 / vbv_maxrate=8430 / vbv_bufsize=11240 / nal_hrd=vbr / ip_ratio=1.40 / aq=1:1.00
Default                                  : Yes
Forced                                   : No

Audio #1
ID                                       : 2
Format                                   : E-AC-3
Format/Info                              : Audio Coding 3
Format settings, Endianness              : Big
Codec ID                                 : A_EAC3
Duration                                 : 1h 38mn
Bit rate mode                            : Constant
Bit rate                                 : 640 Kbps
Channel(s)                               : 6 channels
Channel positions                        : Front: L C R, Side: L R, LFE
Sampling rate                            : 48.0 KHz
Compression mode                         : Lossy
Stream size                              : 451 MiB (9%)
Language                                 : German
Default                                  : Yes
Forced                                   : No

Audio #2
ID                                       : 3
Format                                   : E-AC-3
Format/Info                              : Audio Coding 3
Format settings, Endianness              : Big
Codec ID                                 : A_EAC3
Duration                                 : 1h 38mn
Bit rate mode                            : Constant
Bit rate                                 : 640 Kbps
Channel(s)                               : 6 channels
Channel positions                        : Front: L C R, Side: L R, LFE
Sampling rate                            : 48.0 KHz
Compression mode                         : Lossy
Stream size                              : 451 MiB (9%)
Language                                 : English
Default                                  : No
Forced                                   : No

Text #1
ID                                       : 4
Format                                   : UTF-8
Codec ID                                 : S_TEXT/UTF8
Codec ID/Info                            : UTF-8 Plain Text
Title                                    : Forced
Language                                 : English
Default                                  : No
Forced                                   : No

Text #2
ID                                       : 5
Format                                   : UTF-8
Codec ID                                 : S_TEXT/UTF8
Codec ID/Info                            : UTF-8 Plain Text
Title                                    : Forced
Language                                 : German
Default                                  : Yes
Forced                                   : Yes

Text #3
ID                                       : 6
Format                                   : UTF-8
Codec ID                                 : S_TEXT/UTF8
Codec ID/Info                            : UTF-8 Plain Text
Title                                    : Deutsch
Language                                 : German
Default                                  : No
Forced                                   : No

Text #4
ID                                       : 7
Format                                   : UTF-8
Codec ID                                 : S_TEXT/UTF8
Codec ID/Info                            : UTF-8 Plain Text
Title                                    : Englisch (CC)
Language                                 : English
Default                                  : No
Forced                                   : No


Download:
Share Online Share OnlineShare OnlineShare Online
 

Kommentare