After Effects Project - VideoHive 4 Screens 131170 | AdWords Express | A Wrinkle in Time 2018 BluRay 1080p x265 10bit S86-JoyInnoExtractor Plus v5.1.6.180. | Bluetooth File Transfer | Eps1 Intervention 19
 


 

DNS SERVER AENDERNum der staatlichen Zensur zu umgehen. Sollten wir von eurem Provider geseprrt werden, nutzt den TOR BROWSER oder ändert euren DNS SERVER.

Filmwünsche können bei uns im Forum abgegeben werden

Wir Speichern Nicht




 
 
 
Top Releases
Crouching.Tiger.Hidden.Drago...
Crouching.Tiger.Hidden.Drago...
Burning.Sands.2017.German.DL...
Burning.Sands.2017.German.DL...
ARQ.2016.German.DL.720p.WEB....
ARQ.2016.German.DL.1080p.WEB...
Benji.2018.German.DL.720p.WE...
Benji.2018.German.DL.1080p.W...
Amerikas.meistgehasste.Frau....
Amerikas.meistgehasste.Frau....

Cinedubs
Skyscraper.German.DL.AC3.Dub...
Skyscraper.German.DL.AC3.Dub...
Hotel.Artemis.2018.GERMAN.DL...
Hotel.Artemis.2018.GERMAN.DL...
The.First.Purge.2018.German....
The.First.Purge.2018.German....
The.First.Purge.2018.German....
Hotel.Transsilvanien.3.Ein.M...
Hotel.Transsilvanien.3.Ein.M...
Hotel.Transsilvanien.3.Ein.M...

Neuerscheinungen 2017-18
Clinical.2017.German.DL.720p...
Clinical.2017.German.DL.1080...
Unter.Feuer.Under.Fire.1983....
Misirlou.2017.COMPLETE.BLURA...
Leviathan.2012.MULTi.COMPLET...
Tank.432.Es.gibt.kein.Zuruec...
Tank.432.Es.gibt.kein.Zuruec...
Hes.out.there.2018.German.72...
Hes.out.there.2018.German.DL...
Stoned.Volle.Droehnung.vorau...

XXX
TakeVan.18.09.17.Mila.Scream...
WetAndPissy.18.09.18.Stacy.S...
X-Angels.18.09.19.Lovita.Fat...
Yanks.18.09.20.Violet.Russo....
WildOnCam.18.09.18.Carter.Cr...
Submissived.18.09.17.Ivory.L...
SweetSinner.18.09.20.Gina.Va...
WickedPictures.Sex.Dreams.XX...
ZZSeries.18.09.18.Brazzers.H...
WildOnCam.18.09.19.Aria.Lee....
TeenFidelity.E336.Natalie.Br...
WildOnCam.18.09.20.Rachael.C...
SweetSinner.18.09.17.Penelop...
WetAndPuffy.18.09.19.Vinna.R...
WankItNow.17.10.28.Sophia.Sm...
TeacherFucksTeens.18.09.18.B...
WhenGirlsPlay.18.09.17.Ivy.W...
Watch4Beauty.18.09.17.Irene....
Young.Cumsluts.2.XXX.1080p.W...
WankItNow.17.10.29.Natalia.F...

3D
Sharknado.6.The.Last.One.3D....
Solo.A.Star.Wars.Story.3D.20...
Solo.A.Star.Wars.Story.3D.20...
Die.Biene.Maja.2.Die.Honigsp...
Avengers.Infinity.War.3D.201...
Avengers.Infinity.War.3D.201...
Rampage.Big.Meets.Bigger.3D....
Rampage.Big.Meets.Bigger.3D....
Rampage.Big.Meets.Bigger.3D....
Winter.Games.3D.2013.DUAL.CO...
Tomb.Raider.3D.2018.German.7...
Rampage.Big.Meets.Bigger.3D....
Rampage.Big.Meets.Bigger.3D....
Tomb.Raider.3D.2018.MULTi.CO...
Pacific.Rim.Uprising.3D.2018...

Old_Stuff
Britney.Spears.Live.The.Femm...
Buffy.The.Vampire.Slayer.199...
IMAX.Ride.Around.The.World.2...
Schimanski.-.Duisburg.Ruhror...
Akte.X.S02.German.DTS.DL.108...
How.I.Met.Your.Mother.S02.Ge...
Akte.X.S01.German.DTS.DL.108...
Den.Himmel.gibts.echt.DL.108...
Vikings.S02.German.DL.1080p....
Be.Kind.Rewind.Abgedreht.200...
Be.Kind.Rewind.Abgedreht.200...
Dracula.The.Dark.Lord.2012.G...
21.2008.German.DL.1080p.BluR...
Achtung.fertig.WK.Swissgerma...
The.Ouija.Exorcism.2015.MULT...

Filme
Valdez.Is.Coming.1971.German...
Scenes.From.A.Mall.Ein.Ganz....
The.Outpost.S01.GERMAN.720p....
Snowfall.S02.German.DD51.Dub...
Once.Upon.a.Time.S07.German....
Der.Besessene.1961.German.DL...
Once.Upon.a.Time.S07.German....
Marvels.Agents.of.S.H.I.E.L....
Marvels.Agents.of.S.H.I.E.L....
Animal.Kingdom.S03.GERMAN.72...
Der.erste.und.der.letzte.Tag...
Solange.ich.atme.2017.German...
Formel.1.Saison.2018.GERMAN....
Anon.2018.German.Dubbed.RETA...
Anon.2018.German.Dubbed.RETA...
The.Bet.2006.German.DL.1080p...
The.Book.of.Eli.2010.German....
Elephant.White.2011.German.D...
The.Bell.Witch.Legend.2005.G...
The.Best.Exotic.Marigold.Hot...
The.Big.Bang.2011.German.DL....
The.Con.Artist.Hochstapler.p...
The.Chosen.2015.German.DL.10...
The.Big.White.Immer.Aerger.m...

 
 
Crouching.Tiger.Hidden.Dragon.Sword.of.Destiny.2016.German.DL.720p.WEB.x264.iNTERNAL-BiGiNT

Jahr: 2016
Genre: Action | Abenteuer | Drama
Sprache: Deutsch AC3 | Englisch AC3
Laufzeit: 1h 40mn
Bitrate: 4 270 Kbps
Format: MKV
Größe: 3.01 GiB
Release:

Beschreibung:

17 Jahre nach dem Tod des Schwertmeisters Li Mu Bai hat seine frühere Geliebte Yu Shu Lien (Michelle Yeoh) der Kampfkunst abgeschworen und sich zurückgezogen. Doch noch immer sind zahlreiche machthungrige Krieger hinter dem legendären Grünen Schwert der Unterwelt her. Als der finstere Kriegsherr Hades Dai (Jason Scott Lee) auf der Bildfläche erscheint und drauf und dran ist, die mächtige Waffe in seinen Besitz zu bringen, sieht sich Yu Shu Lien gezwungen, das Schwert erneut mit allen Mitteln zu beschützen. Als dann aber auch noch der totgeglaubte Silent Wolf (Donnie Yen), ein Mann aus ihrer Vergangenheit, plötzlich wieder auftaucht und in ihr alte Gefühle weckt, macht dies alles nur komplizierter.



Complete name                            : crouching.tiger.hidden.dragon.sword.of.destiny.2016.german.dl.720p.web.x264.internal-bigint.mkv
Format                                   : Matroska
Format version                           : Version 4 / Version 2
File size                                : 3.01 GiB
Duration                                 : 1h 40mn
Overall bit rate mode                    : Variable
Overall bit rate                         : 4 270 Kbps
Encoded date                             : UTC 2018-09-26 23:06:12
Writing application                      : mkvmerge v22.0.0 ('At The End Of The World') 64-bit
Writing library                          : libebml v1.3.5 + libmatroska v1.4.8
DURATION                                 : 01:28:54.246000000
NUMBER_OF_FRAMES                         : 789
NUMBER_OF_BYTES                          : 22184
_STATISTICS_WRITING_APP                  : mkvmerge v22.0.0 ('At The End Of The World') 64-bit
_STATISTICS_WRITING_DATE_UTC             : 2018-09-26 23:06:12
_STATISTICS_TAGS                         : BPS DURATION NUMBER_OF_FRAMES NUMBER_OF_BYTES

Video
ID                                       : 1
Format                                   : AVC
Format/Info                              : Advanced Video Codec
Format profile                           : [email protected]
Format settings, CABAC                   : Yes
Format settings, ReFrames                : 3 frames
Codec ID                                 : V_MPEG4/ISO/AVC
Duration                                 : 1h 40mn
Bit rate mode                            : Variable
Bit rate                                 : 3 010 Kbps
Maximum bit rate                         : 4 515 Kbps
Width                                    : 1 280 pixels
Height                                   : 720 pixels
Display aspect ratio                     : 16:9
Frame rate mode                          : Constant
Frame rate                               : 23.976 fps
Color space                              : YUV
Chroma subsampling                       : 4:2:0
Bit depth                                : 8 bits
Scan type                                : Progressive
Bits/(Pixel*Frame)                       : 0.136
Stream size                              : 2.05 GiB (68%)
Writing library                          : x264 core 118
Encoding settings                        : cabac=1 / ref=3 / deblock=1:0:0 / analyse=0x1:0x111 / me=umh / subme=10 / psy=1 / psy_rd=1.00:0.00 / mixed_ref=1 / me_range=24 / chroma_me=1 / trellis=2 / 8x8dct=0 / cqm=0 / deadzone=21,11 / fast_pskip=1 / chroma_qp_offset=-2 / threads=8 / sliced_threads=0 / nr=0 / decimate=1 / interlaced=0 / bluray_compat=0 / constrained_intra=0 / bframes=2 / b_pyramid=0 / b_adapt=2 / b_bias=0 / direct=3 / weightb=1 / open_gop=0 / weightp=2 / keyint=48 / keyint_min=25 / scenecut=0 / intra_refresh=0 / rc_lookahead=0 / rc=2pass / mbtree=1 / bitrate=3010 / ratetol=1.0 / qcomp=0.50 / qpmin=6 / qpmax=51 / qpstep=4 / cplxblur=20.0 / qblur=0.5 / vbv_maxrate=4515 / vbv_bufsize=6020 / nal_hrd=vbr / ip_ratio=1.40 / aq=1:1.00
Default                                  : Yes
Forced                                   : No

Audio #1
ID                                       : 2
Format                                   : E-AC-3
Format/Info                              : Audio Coding 3
Format settings, Endianness              : Big
Codec ID                                 : A_EAC3
Duration                                 : 1h 40mn
Bit rate mode                            : Constant
Bit rate                                 : 640 Kbps
Channel(s)                               : 6 channels
Channel positions                        : Front: L C R, Side: L R, LFE
Sampling rate                            : 48.0 KHz
Compression mode                         : Lossy
Stream size                              : 462 MiB (15%)
Language                                 : German
Default                                  : Yes
Forced                                   : No

Audio #2
ID                                       : 3
Format                                   : E-AC-3
Format/Info                              : Audio Coding 3
Format settings, Endianness              : Big
Codec ID                                 : A_EAC3
Duration                                 : 1h 40mn
Bit rate mode                            : Constant
Bit rate                                 : 640 Kbps
Channel(s)                               : 6 channels
Channel positions                        : Front: L C R, Side: L R, LFE
Sampling rate                            : 48.0 KHz
Compression mode                         : Lossy
Stream size                              : 462 MiB (15%)
Language                                 : English
Default                                  : No
Forced                                   : No

Text #1
ID                                       : 4
Format                                   : UTF-8
Codec ID                                 : S_TEXT/UTF8
Codec ID/Info                            : UTF-8 Plain Text
Title                                    : Forced
Language                                 : German
Default                                  : Yes
Forced                                   : Yes

Text #2
ID                                       : 5
Format                                   : UTF-8
Codec ID                                 : S_TEXT/UTF8
Codec ID/Info                            : UTF-8 Plain Text
Title                                    : Deutsch
Language                                 : German
Default                                  : No
Forced                                   : No

Text #3
ID                                       : 6
Format                                   : UTF-8
Codec ID                                 : S_TEXT/UTF8
Codec ID/Info                            : UTF-8 Plain Text
Title                                    : Englisch
Language                                 : English
Default                                  : No
Forced                                   : No

Text #4
ID                                       : 7
Format                                   : UTF-8
Codec ID                                 : S_TEXT/UTF8
Codec ID/Info                            : UTF-8 Plain Text
Title                                    : Englisch (CC)
Language                                 : English
Default                                  : No
Forced                                   : No


Download:
Share Online Share OnlineShare OnlineShare Online
 

Kommentare