frthwlkdds1e2.hd72_300mbfilms.com.srt | Eps3 Untitled New Edition Biopic (2017) | 15.06.1812:50 Uhr Fury Herz aus Stahl Actionx265 0 / 02.410 Hits VID P2P DDL 0 KommentareSearch Forums | Харви Кейтель | La Petite Italie
 


 

DNS SERVER AENDERNum der staatlichen Zensur zu umgehen. Sollten wir von eurem Provider geseprrt werden, nutzt den TOR BROWSER oder ändert euren DNS SERVER.

Filmwünsche können bei uns im Forum abgegeben werden

Wir Speichern Nicht




 
 
 
Top Releases
Anon.2018.COMPLETE.BluRay-AN...
Letztendlich.sind.wir.dem.Un...
Im.Schatten.der.Netzwelt.-.T...
Jane.2017.German.DL.Doku.108...
Jane.2017.German.DL.Doku.720...
Zion.2018.German.DL.Doku.720...
Bad.Samaritan.Im.Visier.des....
Winter.on.Fire.Ukraines.Figh...
Winter.on.Fire.Ukraines.Figh...
Bad.Samaritan.Im.Visier.des....

Cinedubs
Skyscraper.German.DL.AC3.Dub...
Skyscraper.German.DL.AC3.Dub...
Hotel.Artemis.2018.GERMAN.DL...
Hotel.Artemis.2018.GERMAN.DL...
The.First.Purge.2018.German....
The.First.Purge.2018.German....
The.First.Purge.2018.German....
Hotel.Transsilvanien.3.Ein.M...
Hotel.Transsilvanien.3.Ein.M...
Hotel.Transsilvanien.3.Ein.M...

Neuerscheinungen 2017-18
Misirlou.2017.COMPLETE.BLURA...
Leviathan.2012.MULTi.COMPLET...
Tank.432.Es.gibt.kein.Zuruec...
Tank.432.Es.gibt.kein.Zuruec...
Hes.out.there.2018.German.72...
Hes.out.there.2018.German.DL...
Stoned.Volle.Droehnung.vorau...
Stoned.Volle.Droehnung.vorau...
Red.Army.Hooligans.2018.Germ...
Red.Army.Hooligans.2018.Germ...

XXX
ClubSeventeen.18.09.18.Maris...
ATKGirlfriends.18.09.18.Lola...
AllOver30.18.09.19.Virgo.Per...
BlacksOnBlondes.18.09.18.Dai...
Be.A.Pornstar.XXX.1080p.WEBR...
BreakingAsses.18.09.18.Gina....
BigButtsLikeItBig.18.09.17.V...
Amateur.Teen.Lap.Grinders.3....
BangingBeauties.18.09.20.Ale...
BrazzersExxtra.18.09.20.Hone...
BlackValleyGirls.18.09.18.De...
ClubSeventeen.18.09.19.Natha...
BigNaturals.18.09.18.Angela....
Blacked.18.09.17.Mia.Melano....
CastingCouch-HD.18.09.14.Sel...
ClubSeventeen.18.09.20.Daisy...
CherryPimps.18.09.19.Lilly.F...
BoundGangBangs.18.09.19.Jay....
BitchesAbroad.18.09.20.Charl...
BurningAngel.18.09.18.Ivy.Wo...

3D
Sharknado.6.The.Last.One.3D....
Solo.A.Star.Wars.Story.3D.20...
Solo.A.Star.Wars.Story.3D.20...
Die.Biene.Maja.2.Die.Honigsp...
Avengers.Infinity.War.3D.201...
Avengers.Infinity.War.3D.201...
Rampage.Big.Meets.Bigger.3D....
Rampage.Big.Meets.Bigger.3D....
Rampage.Big.Meets.Bigger.3D....
Winter.Games.3D.2013.DUAL.CO...
Tomb.Raider.3D.2018.German.7...
Rampage.Big.Meets.Bigger.3D....
Rampage.Big.Meets.Bigger.3D....
Tomb.Raider.3D.2018.MULTi.CO...
Pacific.Rim.Uprising.3D.2018...

Old_Stuff
Britney.Spears.Live.The.Femm...
Buffy.The.Vampire.Slayer.199...
IMAX.Ride.Around.The.World.2...
Schimanski.-.Duisburg.Ruhror...
Akte.X.S02.German.DTS.DL.108...
How.I.Met.Your.Mother.S02.Ge...
Akte.X.S01.German.DTS.DL.108...
Den.Himmel.gibts.echt.DL.108...
Vikings.S02.German.DL.1080p....
Be.Kind.Rewind.Abgedreht.200...
Be.Kind.Rewind.Abgedreht.200...
Dracula.The.Dark.Lord.2012.G...
21.2008.German.DL.1080p.BluR...
Achtung.fertig.WK.Swissgerma...
The.Ouija.Exorcism.2015.MULT...

Filme
The.Book.of.Eli.2010.German....
Elephant.White.2011.German.D...
The.Bell.Witch.Legend.2005.G...
The.Best.Exotic.Marigold.Hot...
The.Big.Bang.2011.German.DL....
The.Con.Artist.Hochstapler.p...
The.Chosen.2015.German.DL.10...
The.Big.White.Immer.Aerger.m...
Housesitter.Luegen.haben.sch...
Housesitter.Luegen.haben.sch...
Johnny.Guitar.Gejagt.gehasst...
Johnny.Guitar.Gejagt.gehasst...
Batman.S02.COMPLETE.German.A...
Ferien.zu.dritt.The.Great.Ou...
Ein.Schweinchen.namens.Babe....
Friedensgespraeche.-.Die.Osl...
Vertauschtes.Glueck.1941.Ger...
Hightech.Gangster.Superbluet...
Poschs.Criminalz.S01.COMPLET...
Poschs.Criminalz.S01.COMPLET...
The.Axe.is.Back.Die.Rache.de...
The.Bachelor.Weekend.2013.Ge...
The.Deadly.Game.2013.German....
The.Backpacker.Menschenjagd....

 
 
The.Book.of.Eli.2010.German.DL.1080p.BluRay.x264.iNTERNAL-VideoStar

Jahr: 2010
Genre: Action, Abenteuer, Drama, Western
Sprache: Deutsch DTS | Englisch DTS
Laufzeit: 1h 57mn
Bitrate: 6 252 Kbps
Format: MKV
Größe: 5.14 GiB
Release:

Beschreibung:
Im Jahr 2044 ist die Erde nicht mehr das, was sie heute noch ausmacht. Kriegerische Auseinandersetzungen haben einen Hort der Zerstörung hinterlassen. Der einsame Kämpfer Eli (Denzel Washington) wandert durch die Vereinigten Staaten, wobei er eine wertvolle Fracht mit sich trägt. Er ist im Besitz eines begehrten Buches, dem große Macht zugeschrieben wird. Deswegen muss sich Eli vor dem brutalen Carneggie (Gary Oldman) in Acht nehmen, der schon lange hinter einem Exemplar des Buches her ist. Mit seinen Schergen hat Carneggie in einer heruntergekommenen Wüstenstadt ein kleines Reich aufgebaut, über das er mit erbarmungsloser Härte herrscht. Eli gerät aufgrund eines Streits mit Carneggies Männern aneinander, als er sich in dessen Stadt aufhält. Das bringt ihm einen Aufenthalt in einer von Carneggies Zellen ein. Nachdem sich Eli dem Bestreben Carneggies widersetzt hat, auf die Seite des gewalttätigen Anführers zu wechseln, entwickelt sich zwischen Eli und seinem Gegner ein Kampf bis aufs Blut.


Complete name                            : vs-the.book.1080p.mkv
Format                                   : Matroska
Format version                           : Version 4 / Version 2
File size                                : 5.14 GiB
Duration                                 : 1h 57mn
Overall bit rate                         : 6 252 Kbps
Encoded date                             : UTC 2013-12-04 06:12:48
Writing application                      : mkvmerge v6.5.0 ('Isn't she lovely') built on Oct 20 2013 12:50:05
Writing library                          : libebml v1.3.0 + libmatroska v1.4.1

Video
ID                                       : 1
Format                                   : AVC
Format/Info                              : Advanced Video Codec
Format profile                           : [email protected]
Format settings, CABAC                   : Yes
Format settings, ReFrames                : 5 frames
Codec ID                                 : V_MPEG4/ISO/AVC
Duration                                 : 1h 57mn
Bit rate                                 : 3 110 Kbps
Width                                    : 1 920 pixels
Height                                   : 800 pixels
Display aspect ratio                     : 2.40:1
Frame rate mode                          : Constant
Frame rate                               : 23.976 fps
Color space                              : YUV
Chroma subsampling                       : 4:2:0
Bit depth                                : 8 bits
Scan type                                : Progressive
Bits/(Pixel*Frame)                       : 0.084
Stream size                              : 2.56 GiB (50%)
Writing library                          : x264 core 140 r2377 1ca7bb9
Encoding settings                        : cabac=1 / ref=5 / deblock=1:0:0 / analyse=0x3:0x113 / me=umh / subme=7 / psy=1 / psy_rd=1.00:0.00 / mixed_ref=1 / me_range=16 / chroma_me=1 / trellis=1 / 8x8dct=1 / cqm=0 / deadzone=21,11 / fast_pskip=0 / chroma_qp_offset=-2 / threads=6 / lookahead_threads=1 / sliced_threads=0 / nr=0 / decimate=1 / interlaced=0 / bluray_compat=0 / constrained_intra=0 / bframes=3 / b_pyramid=2 / b_adapt=1 / b_bias=0 / direct=1 / weightb=1 / open_gop=0 / weightp=2 / keyint=250 / keyint_min=23 / scenecut=40 / intra_refresh=0 / rc_lookahead=40 / rc=crf / mbtree=1 / crf=20.0 / qcomp=0.60 / qpmin=0 / qpmax=69 / qpstep=4 / ip_ratio=1.40 / aq=1:1.00
Default                                  : Yes
Forced                                   : No

Audio #1
ID                                       : 2
Format                                   : DTS
Format/Info                              : Digital Theater Systems
Mode                                     : 16
Format settings, Endianness              : Big
Codec ID                                 : A_DTS
Duration                                 : 1h 57mn
Bit rate mode                            : Constant
Bit rate                                 : 1 509 Kbps
Channel(s)                               : 6 channels
Channel positions                        : Front: L C R, Side: L R, LFE
Sampling rate                            : 48.0 KHz
Bit depth                                : 24 bits
Compression mode                         : Lossy
Stream size                              : 1.24 GiB (24%)
Language                                 : German
Default                                  : Yes
Forced                                   : No

Audio #2
ID                                       : 3
Format                                   : DTS
Format/Info                              : Digital Theater Systems
Mode                                     : 16
Format settings, Endianness              : Big
Codec ID                                 : A_DTS
Duration                                 : 1h 57mn
Bit rate mode                            : Constant
Bit rate                                 : 1 509 Kbps
Channel(s)                               : 6 channels
Channel positions                        : Front: L C R, Side: L R, LFE
Sampling rate                            : 48.0 KHz
Bit depth                                : 24 bits
Compression mode                         : Lossy
Stream size                              : 1.24 GiB (24%)
Language                                 : English
Default                                  : No
Forced                                   : No


Download:
 

Kommentare