Watch movie | Schau jetzt | Carter CruiseGerman Verbs Pro: conjugation translation grammar v1.0.38 APK Cracked | Mad Dogs | rifleman s05
 


 

DNS SERVER AENDERNum der staatlichen Zensur zu umgehen. Sollten wir von eurem Provider geseprrt werden, nutzt den TOR BROWSER oder ändert euren DNS SERVER.

Filmwünsche können bei uns im Forum abgegeben werden

Wir Speichern Nicht




 
 
 
Top Releases
Anon.2018.COMPLETE.BluRay-AN...
Letztendlich.sind.wir.dem.Un...
Im.Schatten.der.Netzwelt.-.T...
Jane.2017.German.DL.Doku.108...
Jane.2017.German.DL.Doku.720...
Zion.2018.German.DL.Doku.720...
Bad.Samaritan.Im.Visier.des....
Winter.on.Fire.Ukraines.Figh...
Winter.on.Fire.Ukraines.Figh...
Bad.Samaritan.Im.Visier.des....

Cinedubs
Skyscraper.German.DL.AC3.Dub...
Skyscraper.German.DL.AC3.Dub...
Hotel.Artemis.2018.GERMAN.DL...
Hotel.Artemis.2018.GERMAN.DL...
The.First.Purge.2018.German....
The.First.Purge.2018.German....
The.First.Purge.2018.German....
Hotel.Transsilvanien.3.Ein.M...
Hotel.Transsilvanien.3.Ein.M...
Hotel.Transsilvanien.3.Ein.M...

Neuerscheinungen 2017-18
Misirlou.2017.COMPLETE.BLURA...
Leviathan.2012.MULTi.COMPLET...
Tank.432.Es.gibt.kein.Zuruec...
Tank.432.Es.gibt.kein.Zuruec...
Hes.out.there.2018.German.72...
Hes.out.there.2018.German.DL...
Stoned.Volle.Droehnung.vorau...
Stoned.Volle.Droehnung.vorau...
Red.Army.Hooligans.2018.Germ...
Red.Army.Hooligans.2018.Germ...

XXX
ClubSeventeen.18.09.18.Maris...
ATKGirlfriends.18.09.18.Lola...
AllOver30.18.09.19.Virgo.Per...
BlacksOnBlondes.18.09.18.Dai...
Be.A.Pornstar.XXX.1080p.WEBR...
BreakingAsses.18.09.18.Gina....
BigButtsLikeItBig.18.09.17.V...
Amateur.Teen.Lap.Grinders.3....
BangingBeauties.18.09.20.Ale...
BrazzersExxtra.18.09.20.Hone...
BlackValleyGirls.18.09.18.De...
ClubSeventeen.18.09.19.Natha...
BigNaturals.18.09.18.Angela....
Blacked.18.09.17.Mia.Melano....
CastingCouch-HD.18.09.14.Sel...
ClubSeventeen.18.09.20.Daisy...
CherryPimps.18.09.19.Lilly.F...
BoundGangBangs.18.09.19.Jay....
BitchesAbroad.18.09.20.Charl...
BurningAngel.18.09.18.Ivy.Wo...

3D
Sharknado.6.The.Last.One.3D....
Solo.A.Star.Wars.Story.3D.20...
Solo.A.Star.Wars.Story.3D.20...
Die.Biene.Maja.2.Die.Honigsp...
Avengers.Infinity.War.3D.201...
Avengers.Infinity.War.3D.201...
Rampage.Big.Meets.Bigger.3D....
Rampage.Big.Meets.Bigger.3D....
Rampage.Big.Meets.Bigger.3D....
Winter.Games.3D.2013.DUAL.CO...
Tomb.Raider.3D.2018.German.7...
Rampage.Big.Meets.Bigger.3D....
Rampage.Big.Meets.Bigger.3D....
Tomb.Raider.3D.2018.MULTi.CO...
Pacific.Rim.Uprising.3D.2018...

Old_Stuff
Britney.Spears.Live.The.Femm...
Buffy.The.Vampire.Slayer.199...
IMAX.Ride.Around.The.World.2...
Schimanski.-.Duisburg.Ruhror...
Akte.X.S02.German.DTS.DL.108...
How.I.Met.Your.Mother.S02.Ge...
Akte.X.S01.German.DTS.DL.108...
Den.Himmel.gibts.echt.DL.108...
Vikings.S02.German.DL.1080p....
Be.Kind.Rewind.Abgedreht.200...
Be.Kind.Rewind.Abgedreht.200...
Dracula.The.Dark.Lord.2012.G...
21.2008.German.DL.1080p.BluR...
Achtung.fertig.WK.Swissgerma...
The.Ouija.Exorcism.2015.MULT...

Filme
Elephant.White.2011.German.D...
The.Bell.Witch.Legend.2005.G...
The.Best.Exotic.Marigold.Hot...
The.Big.Bang.2011.German.DL....
The.Con.Artist.Hochstapler.p...
The.Chosen.2015.German.DL.10...
The.Big.White.Immer.Aerger.m...
Housesitter.Luegen.haben.sch...
Housesitter.Luegen.haben.sch...
Johnny.Guitar.Gejagt.gehasst...
Johnny.Guitar.Gejagt.gehasst...
Batman.S02.COMPLETE.German.A...
Ferien.zu.dritt.The.Great.Ou...
Ein.Schweinchen.namens.Babe....
Friedensgespraeche.-.Die.Osl...
Vertauschtes.Glueck.1941.Ger...
Hightech.Gangster.Superbluet...
Poschs.Criminalz.S01.COMPLET...
Poschs.Criminalz.S01.COMPLET...
The.Axe.is.Back.Die.Rache.de...
The.Bachelor.Weekend.2013.Ge...
The.Deadly.Game.2013.German....
The.Backpacker.Menschenjagd....
The.Bates.Haunting.German.20...

 
 
The.Bell.Witch.Legend.2005.GERMAN.DL.DTS.1080p.BluRay.x264-OldsMan

Jahr: 2008
Genre: Horror, Thriller
Sprache: Deutsch DTS | Englisch DTS
Laufzeit: 1h 30mn
Bitrate: 9 821 Kbps
Format: MKV
Größe: 6.20 GiB
Release:

Beschreibung:

Tennessee, im Jahre 1818. Nach einem erbitterten Streit mit einer als Hexe verschrienen Bäuerin liegt plötzlich ein Fluch auf der Familie des Farmers John Bell und seiner Frau Lucy. Eine unsichtbare und unbarmherzige Macht dringt in das Leben der braven Sippe ein, malträtiert besonders Familienoberhaupt John und die halbwüchsige Tochter Betsy. Mit der Zeit wird der Geist immer mächtiger und aggressiver, die Qualen der Bells steigern sich ins Unerträgliche. Ein gespenstischer, blutrünstiger Wolf streift um das Haus, ominöse Stimmen ertönen und schließlich kündigt der paranormale Eindringling an, dass er John Bell töten werde.



Complete name                            : om-tbwl.1080p.mkv
Format                                   : Matroska
Format version                           : Version 2
File size                                : 6.20 GiB
Duration                                 : 1h 30mn
Overall bit rate                         : 9 821 Kbps
Encoded date                             : UTC 2013-01-16 20:55:38
Writing application                      : mkvmerge v5.8.0 ('No Sleep / Pillow') built on Sep  2 2012 15:37:04
Writing library                          : libebml v1.2.3 + libmatroska v1.3.0

Video
ID                                       : 1
Format                                   : AVC
Format/Info                              : Advanced Video Codec
Format profile                           : [email protected]
Format settings, CABAC                   : Yes
Format settings, ReFrames                : 5 frames
Muxing mode                              : Header stripping
Codec ID                                 : V_MPEG4/ISO/AVC
Duration                                 : 1h 30mn
Bit rate                                 : 6 608 Kbps
Width                                    : 1 920 pixels
Height                                   : 792 pixels
Display aspect ratio                     : 2.40:1
Frame rate mode                          : Constant
Frame rate                               : 23.976 fps
Color space                              : YUV
Chroma subsampling                       : 4:2:0
Bit depth                                : 8 bits
Scan type                                : Progressive
Bits/(Pixel*Frame)                       : 0.181
Stream size                              : 4.17 GiB (67%)
Writing library                          : x264 core 129 r2245 bc13772
Encoding settings                        : cabac=1 / ref=5 / deblock=1:-1:-1 / analyse=0x3:0x133 / me=umh / subme=7 / psy=1 / psy_rd=1.00:0.15 / mixed_ref=1 / me_range=16 / chroma_me=1 / trellis=1 / 8x8dct=1 / cqm=0 / deadzone=21,11 / fast_pskip=0 / chroma_qp_offset=-3 / threads=12 / lookahead_threads=2 / sliced_threads=0 / nr=0 / decimate=1 / interlaced=0 / bluray_compat=0 / constrained_intra=0 / bframes=3 / b_pyramid=2 / b_adapt=1 / b_bias=0 / direct=1 / weightb=1 / open_gop=0 / weightp=2 / keyint=240 / keyint_min=23 / scenecut=40 / intra_refresh=0 / rc_lookahead=40 / rc=crf / mbtree=1 / crf=20.0 / qcomp=0.60 / qpmin=10 / qpmax=51 / qpstep=4 / ip_ratio=1.40 / aq=1:1.00
Language                                 : English
Default                                  : Yes
Forced                                   : No

Audio #1
ID                                       : 2
Format                                   : DTS
Format/Info                              : Digital Theater Systems
Mode                                     : 16
Format settings, Endianness              : Big
Muxing mode                              : Header stripping
Codec ID                                 : A_DTS
Duration                                 : 1h 30mn
Bit rate mode                            : Constant
Bit rate                                 : 1 509 Kbps
Channel(s)                               : 6 channels
Channel positions                        : Front: L C R, Side: L R, LFE
Sampling rate                            : 48.0 KHz
Bit depth                                : 24 bits
Compression mode                         : Lossy
Stream size                              : 975 MiB (15%)
Language                                 : German
Default                                  : Yes
Forced                                   : Yes

Audio #2
ID                                       : 3
Format                                   : DTS
Format/Info                              : Digital Theater Systems
Mode                                     : 16
Format settings, Endianness              : Big
Muxing mode                              : Header stripping
Codec ID                                 : A_DTS
Duration                                 : 1h 30mn
Bit rate mode                            : Constant
Bit rate                                 : 1 509 Kbps
Channel(s)                               : 6 channels
Channel positions                        : Front: L C R, Side: L R, LFE
Sampling rate                            : 48.0 KHz
Bit depth                                : 24 bits
Compression mode                         : Lossy
Stream size                              : 975 MiB (15%)
Language                                 : English
Default                                  : No
Forced                                   : No

Text
ID                                       : 4
Format                                   : UTF-8
Codec ID                                 : S_TEXT/UTF8
Codec ID/Info                            : UTF-8 Plain Text
Language                                 : German
Default                                  : Yes
Forced                                   : Yes


Download:
Share Online Share OnlineShare OnlineShare Online
 

Kommentare