Paintastic v6.7.7 APK modded | Bluecoins v45.24.05 APK Premium | Big BrotherBandes dessinées | Weekly Idol Episode 235 | Thriller
 


 

DNS SERVER AENDERNum der staatlichen Zensur zu umgehen. Sollten wir von eurem Provider geseprrt werden, nutzt den TOR BROWSER oder ändert euren DNS SERVER.

Filmwünsche können bei uns im Forum abgegeben werden

Wir Speichern Nicht




 
 
 
Top Releases
Anon.2018.COMPLETE.BluRay-AN...
Letztendlich.sind.wir.dem.Un...
Im.Schatten.der.Netzwelt.-.T...
Jane.2017.German.DL.Doku.108...
Jane.2017.German.DL.Doku.720...
Zion.2018.German.DL.Doku.720...
Bad.Samaritan.Im.Visier.des....
Winter.on.Fire.Ukraines.Figh...
Winter.on.Fire.Ukraines.Figh...
Bad.Samaritan.Im.Visier.des....

Cinedubs
Skyscraper.German.DL.AC3.Dub...
Skyscraper.German.DL.AC3.Dub...
Hotel.Artemis.2018.GERMAN.DL...
Hotel.Artemis.2018.GERMAN.DL...
The.First.Purge.2018.German....
The.First.Purge.2018.German....
The.First.Purge.2018.German....
Hotel.Transsilvanien.3.Ein.M...
Hotel.Transsilvanien.3.Ein.M...
Hotel.Transsilvanien.3.Ein.M...

Neuerscheinungen 2017-18
Misirlou.2017.COMPLETE.BLURA...
Leviathan.2012.MULTi.COMPLET...
Tank.432.Es.gibt.kein.Zuruec...
Tank.432.Es.gibt.kein.Zuruec...
Hes.out.there.2018.German.72...
Hes.out.there.2018.German.DL...
Stoned.Volle.Droehnung.vorau...
Stoned.Volle.Droehnung.vorau...
Red.Army.Hooligans.2018.Germ...
Red.Army.Hooligans.2018.Germ...

XXX
ClubSeventeen.18.09.18.Maris...
ATKGirlfriends.18.09.18.Lola...
AllOver30.18.09.19.Virgo.Per...
BlacksOnBlondes.18.09.18.Dai...
Be.A.Pornstar.XXX.1080p.WEBR...
BreakingAsses.18.09.18.Gina....
BigButtsLikeItBig.18.09.17.V...
Amateur.Teen.Lap.Grinders.3....
BangingBeauties.18.09.20.Ale...
BrazzersExxtra.18.09.20.Hone...
BlackValleyGirls.18.09.18.De...
ClubSeventeen.18.09.19.Natha...
BigNaturals.18.09.18.Angela....
Blacked.18.09.17.Mia.Melano....
CastingCouch-HD.18.09.14.Sel...
ClubSeventeen.18.09.20.Daisy...
CherryPimps.18.09.19.Lilly.F...
BoundGangBangs.18.09.19.Jay....
BitchesAbroad.18.09.20.Charl...
BurningAngel.18.09.18.Ivy.Wo...

3D
Sharknado.6.The.Last.One.3D....
Solo.A.Star.Wars.Story.3D.20...
Solo.A.Star.Wars.Story.3D.20...
Die.Biene.Maja.2.Die.Honigsp...
Avengers.Infinity.War.3D.201...
Avengers.Infinity.War.3D.201...
Rampage.Big.Meets.Bigger.3D....
Rampage.Big.Meets.Bigger.3D....
Rampage.Big.Meets.Bigger.3D....
Winter.Games.3D.2013.DUAL.CO...
Tomb.Raider.3D.2018.German.7...
Rampage.Big.Meets.Bigger.3D....
Rampage.Big.Meets.Bigger.3D....
Tomb.Raider.3D.2018.MULTi.CO...
Pacific.Rim.Uprising.3D.2018...

Old_Stuff
Britney.Spears.Live.The.Femm...
Buffy.The.Vampire.Slayer.199...
IMAX.Ride.Around.The.World.2...
Schimanski.-.Duisburg.Ruhror...
Akte.X.S02.German.DTS.DL.108...
How.I.Met.Your.Mother.S02.Ge...
Akte.X.S01.German.DTS.DL.108...
Den.Himmel.gibts.echt.DL.108...
Vikings.S02.German.DL.1080p....
Be.Kind.Rewind.Abgedreht.200...
Be.Kind.Rewind.Abgedreht.200...
Dracula.The.Dark.Lord.2012.G...
21.2008.German.DL.1080p.BluR...
Achtung.fertig.WK.Swissgerma...
The.Ouija.Exorcism.2015.MULT...

Filme
Housesitter.Luegen.haben.sch...
Housesitter.Luegen.haben.sch...
Johnny.Guitar.Gejagt.gehasst...
Johnny.Guitar.Gejagt.gehasst...
Batman.S02.COMPLETE.German.A...
Ferien.zu.dritt.The.Great.Ou...
Ein.Schweinchen.namens.Babe....
Friedensgespraeche.-.Die.Osl...
Vertauschtes.Glueck.1941.Ger...
Hightech.Gangster.Superbluet...
Poschs.Criminalz.S01.COMPLET...
Poschs.Criminalz.S01.COMPLET...
The.Axe.is.Back.Die.Rache.de...
The.Bachelor.Weekend.2013.Ge...
The.Deadly.Game.2013.German....
The.Backpacker.Menschenjagd....
The.Bates.Haunting.German.20...
The.Baytown.Outlaws.2012.Ger...
The.Bell.Witch.Haunting.2013...
Preis.der.Macht.True.Colors....
The.Burrowers.Das.Boese.unte...
Verliebt.in.scharfe.Kurven.1...
Zombie.Nightmare.1987.German...
Zombie.Nightmare.1987.German...

 
 
Housesitter.Luegen.haben.schoene.Beine.1992.German.720p.BluRay.x264-iNKLUSiON

Jahr: 1992
Genre: Komödie
Sprache: Deutsch DTS
Laufzeit: 1h 41mn
Bitrate: 6 139 Kbps
Format: MKV
Größe: 4.35 GiB
Release:

Beschreibung:

Eigentlich hat Architekt Newton Davis (Steve Martin) alles, was ein Mann sich wünschen könnte: einen tollen Job, die große Liebe und sogar schon ein gemeinsames Traumhaus. Doch als Dauerfreundin Becky seinen Heiratsantrag ablehnt, bleibt Newton mit den Schlüsseln allein zurück. Eine Chance, die sich die gerissene Kellnerin Gwen (Goldie Hawn) nicht entgehen lassen möchte. Nach einer gemeinsamen Nacht mit Newton zieht sie ohne dessen Wissen bei ihm ein – als seine angebliche Ehefrau!



Complete name                            : inkl-housesitter-720p.mkv
Format                                   : Matroska
Format version                           : Version 4 / Version 2
File size                                : 4.35 GiB
Duration                                 : 1h 41mn
Overall bit rate                         : 6 139 Kbps
Encoded date                             : UTC 2018-09-29 11:12:29
Writing application                      : mkvmerge v24.0.0 ('Beyond The Pale') 32-bit
Writing library                          : libebml v1.3.6 + libmatroska v1.4.9
DURATION                                 : 00:21:46.052000000
NUMBER_OF_FRAMES                         : 2
NUMBER_OF_BYTES                          : 43
_STATISTICS_WRITING_APP                  : mkvmerge v24.0.0 ('Beyond The Pale') 32-bit
_STATISTICS_WRITING_DATE_UTC             : 2018-09-29 11:12:29
_STATISTICS_TAGS                         : BPS DURATION NUMBER_OF_FRAMES NUMBER_OF_BYTES

Video
ID                                       : 1
Format                                   : AVC
Format/Info                              : Advanced Video Codec
Format profile                           : [email protected]
Format settings, CABAC                   : Yes
Format settings, ReFrames                : 5 frames
Codec ID                                 : V_MPEG4/ISO/AVC
Duration                                 : 1h 41mn
Bit rate                                 : 4 631 Kbps
Width                                    : 1 280 pixels
Height                                   : 696 pixels
Display aspect ratio                     : 1.85:1
Frame rate mode                          : Constant
Frame rate                               : 23.976 fps
Color space                              : YUV
Chroma subsampling                       : 4:2:0
Bit depth                                : 8 bits
Scan type                                : Progressive
Bits/(Pixel*Frame)                       : 0.217
Stream size                              : 3.20 GiB (73%)
Writing library                          : x264 core 155 r2901 7d0ff22
Encoding settings                        : cabac=1 / ref=5 / deblock=1:-1:-1 / analyse=0x3:0x113 / me=umh / subme=7 / psy=1 / psy_rd=1.00:0.00 / mixed_ref=1 / me_range=16 / chroma_me=1 / trellis=1 / 8x8dct=1 / cqm=0 / deadzone=21,11 / fast_pskip=0 / chroma_qp_offset=-2 / threads=12 / lookahead_threads=2 / sliced_threads=0 / nr=0 / decimate=1 / interlaced=0 / bluray_compat=0 / constrained_intra=0 / bframes=3 / b_pyramid=2 / b_adapt=1 / b_bias=0 / direct=3 / weightb=1 / open_gop=0 / weightp=2 / keyint=250 / keyint_min=23 / scenecut=40 / intra_refresh=0 / rc_lookahead=40 / rc=2pass / mbtree=1 / bitrate=4631 / ratetol=1.0 / qcomp=0.60 / qpmin=0 / qpmax=69 / qpstep=4 / cplxblur=20.0 / qblur=0.5 / ip_ratio=1.40 / aq=1:1.00
Default                                  : Yes
Forced                                   : No

Audio
ID                                       : 2
Format                                   : DTS
Format/Info                              : Digital Theater Systems
Mode                                     : 16
Format settings, Endianness              : Big
Codec ID                                 : A_DTS
Duration                                 : 1h 41mn
Bit rate mode                            : Constant
Bit rate                                 : 1 509 Kbps
Channel(s)                               : 2 channels
Channel positions                        : Front: L R
Sampling rate                            : 48.0 KHz
Bit depth                                : 24 bits
Compression mode                         : Lossy
Stream size                              : 1.07 GiB (25%)
Language                                 : German
Default                                  : Yes
Forced                                   : No

Text
ID                                       : 3
Format                                   : UTF-8
Codec ID                                 : S_TEXT/UTF8
Codec ID/Info                            : UTF-8 Plain Text
Language                                 : German
Default                                  : Yes
Forced                                   : Yes


Download:
Share Online Share OnlineShare OnlineShare Online
 

Kommentare