The Gifted S02E02 unMoored 720p 1080p AMZN WEB-DL DD 5.1 H.264-AJP69 | 1 more rapidgator, uploadgig, nitroflare link | Blue Iguana (2017)The Twilight Zone | Abyss Raiders Uncharted Update v1.21-BAT | Teri Raza
 


 

DNS SERVER AENDERNum der staatlichen Zensur zu umgehen. Sollten wir von eurem Provider geseprrt werden, nutzt den TOR BROWSER oder ändert euren DNS SERVER.

Filmwünsche können bei uns im Forum abgegeben werden

Wir Speichern Nicht




 
 
 
Top Releases
Jane.2017.German.DL.Doku.108...
Jane.2017.German.DL.Doku.720...
Zion.2018.German.DL.Doku.720...
Bad.Samaritan.Im.Visier.des....
Winter.on.Fire.Ukraines.Figh...
Winter.on.Fire.Ukraines.Figh...
Bad.Samaritan.Im.Visier.des....
Bad.Samaritan.Im.Visier.des....
Pawo.German.DL.1080p.BluRay....
Pawo.German.DL.720p.BluRay.x...

Cinedubs
Skyscraper.German.DL.AC3.Dub...
Skyscraper.German.DL.AC3.Dub...
Hotel.Artemis.2018.GERMAN.DL...
Hotel.Artemis.2018.GERMAN.DL...
The.First.Purge.2018.German....
The.First.Purge.2018.German....
The.First.Purge.2018.German....
Hotel.Transsilvanien.3.Ein.M...
Hotel.Transsilvanien.3.Ein.M...
Hotel.Transsilvanien.3.Ein.M...

Neuerscheinungen 2017-18
Tank.432.Es.gibt.kein.Zuruec...
Tank.432.Es.gibt.kein.Zuruec...
Hes.out.there.2018.German.72...
Hes.out.there.2018.German.DL...
Stoned.Volle.Droehnung.vorau...
Stoned.Volle.Droehnung.vorau...
Red.Army.Hooligans.2018.Germ...
Red.Army.Hooligans.2018.Germ...
Misirlou.2017.German.DL.1080...
Rommel.der.Wuestenfuchs.The....

XXX
ClubSeventeen.18.09.18.Maris...
ATKGirlfriends.18.09.18.Lola...
AllOver30.18.09.19.Virgo.Per...
BlacksOnBlondes.18.09.18.Dai...
Be.A.Pornstar.XXX.1080p.WEBR...
BreakingAsses.18.09.18.Gina....
BigButtsLikeItBig.18.09.17.V...
Amateur.Teen.Lap.Grinders.3....
BangingBeauties.18.09.20.Ale...
BrazzersExxtra.18.09.20.Hone...
BlackValleyGirls.18.09.18.De...
ClubSeventeen.18.09.19.Natha...
BigNaturals.18.09.18.Angela....
Blacked.18.09.17.Mia.Melano....
CastingCouch-HD.18.09.14.Sel...
ClubSeventeen.18.09.20.Daisy...
CherryPimps.18.09.19.Lilly.F...
BoundGangBangs.18.09.19.Jay....
BitchesAbroad.18.09.20.Charl...
BurningAngel.18.09.18.Ivy.Wo...

3D
Sharknado.6.The.Last.One.3D....
Solo.A.Star.Wars.Story.3D.20...
Solo.A.Star.Wars.Story.3D.20...
Die.Biene.Maja.2.Die.Honigsp...
Avengers.Infinity.War.3D.201...
Avengers.Infinity.War.3D.201...
Rampage.Big.Meets.Bigger.3D....
Rampage.Big.Meets.Bigger.3D....
Rampage.Big.Meets.Bigger.3D....
Winter.Games.3D.2013.DUAL.CO...
Tomb.Raider.3D.2018.German.7...
Rampage.Big.Meets.Bigger.3D....
Rampage.Big.Meets.Bigger.3D....
Tomb.Raider.3D.2018.MULTi.CO...
Pacific.Rim.Uprising.3D.2018...

Old_Stuff
Britney.Spears.Live.The.Femm...
Buffy.The.Vampire.Slayer.199...
IMAX.Ride.Around.The.World.2...
Schimanski.-.Duisburg.Ruhror...
Akte.X.S02.German.DTS.DL.108...
How.I.Met.Your.Mother.S02.Ge...
Akte.X.S01.German.DTS.DL.108...
Den.Himmel.gibts.echt.DL.108...
Vikings.S02.German.DL.1080p....
Be.Kind.Rewind.Abgedreht.200...
Be.Kind.Rewind.Abgedreht.200...
Dracula.The.Dark.Lord.2012.G...
21.2008.German.DL.1080p.BluR...
Achtung.fertig.WK.Swissgerma...
The.Ouija.Exorcism.2015.MULT...

Filme
Pfad.des.Kriegers.2018.Germa...
Pfad.des.Kriegers.2018.Germa...
Terra.X.Der.Dreissigjaehrige...
Terra.X.Der.Dreissigjaehrige...
Old.Men.in.New.Cars.2002.Blu...
The.Frighteners.1996.German....
Ghost.Rider.Extended.Version...
Feind.ist.wer.anders.denkt.G...
American.Psycho.2000.UNRATED...
Zurueck.aus.der.Hoelle.aka.I...
Halloween.UNCUT.1978.German....
Der.Prinzipal.-.Einer.gegen....
Perfect.Creature.2006.German...
Die.Entfuehrung.der.U-Bahn.P...
Snowfall.S02.GERMAN.DUBBED.7...
The.Flash.2014.S04.COMPLETE....
Gotham.S04.COMPLETE.GERMAN.7...
Zion.2018.German.DL.Doku.108...
Feind.ist.wer.anders.denkt.G...
Shana.Das.Wolfsmaedchen.2014...
Inside.Lehman.Brothers.-.Whi...
Das.Domino.Komplott.1977.Ger...
Spuren.Lass.alles.hinter.Dir...
Gladiator.2000.Theatrical.cu...

 
 
Tank.432.Es.gibt.kein.Zurueck.2015.German.DL.1080p.BluRay.x264-ENCOUNTERS

Jahr: 2015
Genre: Action, Horror
Sprache: Deutsch DTS | Englisch DTS
Laufzeit: 1h 27mn
Bitrate: 8 757 Kbps
Format: MKV
Größe: 5.35 GiB
Release:

Beschreibung:

Auf der Flucht vor vermeintlichen Feinden, verschanzt sich eine Gruppe britischer Soldaten in dem verlassenen Bulldog-Panzer »Tank 432«. Zusammen mit seinen Gefangenen wähnt sich der Trupp dort in Sicherheit. Doch ihr Unterschlupf entpuppt sich als Falle, denn die Luke nach draußen lässt sich nicht mehr öffnen. So verharren sie bangend im Bauch des Stahlmonsters und hoffen auf Rettung. In der unerträglichen Enge des militärischen Transporters nehmen aber der psychische Druck und die paranoiden Wahnvorstellungen unter den Eingeschlossenen mit jeder Minute zu. Aus den einst Verbündeten werden plötzlich unerbittliche Feinde. Als sich die Situation zuspitzt, heißt es einen kühlen Kopf bewahren um diesen Wahnsinn zu überleben.



Complete name                            : encounters-tank432_1080p.mkv
Format                                   : Matroska
Format version                           : Version 4 / Version 2
File size                                : 5.35 GiB
Duration                                 : 1h 27mn
Overall bit rate                         : 8 757 Kbps
Encoded date                             : UTC 2018-09-29 05:47:49
Writing application                      : mkvmerge v14.0.0 ('Flow') 64bit
Writing library                          : libebml v1.3.4 + libmatroska v1.4.5
DURATION                                 : 01:27:30.027000000
NUMBER_OF_FRAMES                         : 492190
NUMBER_OF_BYTES                          : 990287992
_STATISTICS_WRITING_APP                  : mkvmerge v14.0.0 ('Flow') 64bit
_STATISTICS_WRITING_DATE_UTC             : 2018-09-29 05:47:49
_STATISTICS_TAGS                         : BPS DURATION NUMBER_OF_FRAMES NUMBER_OF_BYTES

Video
ID                                       : 1
Format                                   : AVC
Format/Info                              : Advanced Video Codec
Format profile                           : [email protected]
Format settings, CABAC                   : Yes
Format settings, ReFrames                : 5 frames
Codec ID                                 : V_MPEG4/ISO/AVC
Duration                                 : 1h 27mn
Bit rate                                 : 5 565 Kbps
Width                                    : 1 920 pixels
Height                                   : 808 pixels
Display aspect ratio                     : 2.40:1
Frame rate mode                          : Constant
Frame rate                               : 24.000 fps
Color space                              : YUV
Chroma subsampling                       : 4:2:0
Bit depth                                : 8 bits
Scan type                                : Progressive
Bits/(Pixel*Frame)                       : 0.149
Stream size                              : 3.40 GiB (64%)
Writing library                          : x264 core 155 r2901 7d0ff22
Encoding settings                        : cabac=1 / ref=5 / deblock=1:-1:-1 / analyse=0x3:0x133 / me=umh / subme=7 / psy=1 / psy_rd=1.00:0.15 / mixed_ref=1 / me_range=16 / chroma_me=1 / trellis=1 / 8x8dct=1 / cqm=0 / deadzone=21,11 / fast_pskip=0 / chroma_qp_offset=-3 / threads=16 / lookahead_threads=2 / sliced_threads=0 / nr=0 / decimate=1 / interlaced=0 / bluray_compat=0 / constrained_intra=0 / bframes=3 / b_pyramid=2 / b_adapt=1 / b_bias=0 / direct=1 / weightb=1 / open_gop=0 / weightp=2 / keyint=250 / keyint_min=24 / scenecut=40 / intra_refresh=0 / rc_lookahead=40 / rc=crf / mbtree=1 / crf=20.0 / qcomp=0.60 / qpmin=0 / qpmax=69 / qpstep=4 / ip_ratio=1.40 / aq=1:1.00
Default                                  : Yes
Forced                                   : No

Audio #1
ID                                       : 2
Format                                   : DTS
Format/Info                              : Digital Theater Systems
Mode                                     : 16
Format settings, Endianness              : Big
Codec ID                                 : A_DTS
Duration                                 : 1h 27mn
Bit rate mode                            : Constant
Bit rate                                 : 1 509 Kbps
Channel(s)                               : 6 channels
Channel positions                        : Front: L C R, Side: L R, LFE
Sampling rate                            : 48.0 KHz
Bit depth                                : 24 bits
Compression mode                         : Lossy
Stream size                              : 944 MiB (17%)
Language                                 : German
Default                                  : Yes
Forced                                   : No

Audio #2
ID                                       : 3
Format                                   : DTS
Format/Info                              : Digital Theater Systems
Mode                                     : 16
Format settings, Endianness              : Big
Codec ID                                 : A_DTS
Duration                                 : 1h 27mn
Bit rate mode                            : Constant
Bit rate                                 : 1 509 Kbps
Channel(s)                               : 6 channels
Channel positions                        : Front: L C R, Side: L R, LFE
Sampling rate                            : 48.0 KHz
Bit depth                                : 24 bits
Compression mode                         : Lossy
Stream size                              : 944 MiB (17%)
Language                                 : English
Default                                  : No
Forced                                   : No


Download:
Share Online Share OnlineShare OnlineShare Online
 

Kommentare