My City HomeKid-friendly home simulator with potential for lots of fun | Spartakus and the Sun Beneath the Sea | Google ShoppingTeen Patti Gold MOD APK v2.40 Unlimited Coins [Latest] | Content at random | MARIO KART TOUR Nintendo Co., Ltd. PROSSIMAMENTE
 


 

DNS SERVER AENDERNum der staatlichen Zensur zu umgehen. Sollten wir von eurem Provider geseprrt werden, nutzt den TOR BROWSER oder ändert euren DNS SERVER.

Filmwünsche können bei uns im Forum abgegeben werden

Wir Speichern Nicht




 
 
 
Top Releases
Jane.2017.German.DL.Doku.108...
Jane.2017.German.DL.Doku.720...
Zion.2018.German.DL.Doku.720...
Bad.Samaritan.Im.Visier.des....
Winter.on.Fire.Ukraines.Figh...
Winter.on.Fire.Ukraines.Figh...
Bad.Samaritan.Im.Visier.des....
Bad.Samaritan.Im.Visier.des....
Pawo.German.DL.1080p.BluRay....
Pawo.German.DL.720p.BluRay.x...

Cinedubs
Skyscraper.German.DL.AC3.Dub...
Skyscraper.German.DL.AC3.Dub...
Hotel.Artemis.2018.GERMAN.DL...
Hotel.Artemis.2018.GERMAN.DL...
The.First.Purge.2018.German....
The.First.Purge.2018.German....
The.First.Purge.2018.German....
Hotel.Transsilvanien.3.Ein.M...
Hotel.Transsilvanien.3.Ein.M...
Hotel.Transsilvanien.3.Ein.M...

Neuerscheinungen 2017-18
Rommel.der.Wuestenfuchs.The....
Tank.432.Es.gibt.kein.Zuruec...
Pfad.des.Kriegers.2018.MULTi...
Pawo.2016.DUAL.COMPLETE.BLUR...
Misirlou.2017.German.720p.Bl...
Red.Army.Hooligans.2018.MULT...
Im.Zeichen.des.Zorro.The.Mar...
The.Mark.of.Zorro.1940.COLOR...
Rock.N.Roll.High.School.1979...
Ein.Vogel.auf.dem.Drahtseil....

XXX
ClubSeventeen.18.09.18.Maris...
ATKGirlfriends.18.09.18.Lola...
AllOver30.18.09.19.Virgo.Per...
BlacksOnBlondes.18.09.18.Dai...
Be.A.Pornstar.XXX.1080p.WEBR...
BreakingAsses.18.09.18.Gina....
BigButtsLikeItBig.18.09.17.V...
Amateur.Teen.Lap.Grinders.3....
BangingBeauties.18.09.20.Ale...
BrazzersExxtra.18.09.20.Hone...
BlackValleyGirls.18.09.18.De...
ClubSeventeen.18.09.19.Natha...
BigNaturals.18.09.18.Angela....
Blacked.18.09.17.Mia.Melano....
CastingCouch-HD.18.09.14.Sel...
ClubSeventeen.18.09.20.Daisy...
CherryPimps.18.09.19.Lilly.F...
BoundGangBangs.18.09.19.Jay....
BitchesAbroad.18.09.20.Charl...
BurningAngel.18.09.18.Ivy.Wo...

3D
Sharknado.6.The.Last.One.3D....
Solo.A.Star.Wars.Story.3D.20...
Solo.A.Star.Wars.Story.3D.20...
Die.Biene.Maja.2.Die.Honigsp...
Avengers.Infinity.War.3D.201...
Avengers.Infinity.War.3D.201...
Rampage.Big.Meets.Bigger.3D....
Rampage.Big.Meets.Bigger.3D....
Rampage.Big.Meets.Bigger.3D....
Winter.Games.3D.2013.DUAL.CO...
Tomb.Raider.3D.2018.German.7...
Rampage.Big.Meets.Bigger.3D....
Rampage.Big.Meets.Bigger.3D....
Tomb.Raider.3D.2018.MULTi.CO...
Pacific.Rim.Uprising.3D.2018...

Old_Stuff
Britney.Spears.Live.The.Femm...
Buffy.The.Vampire.Slayer.199...
IMAX.Ride.Around.The.World.2...
Schimanski.-.Duisburg.Ruhror...
Akte.X.S02.German.DTS.DL.108...
How.I.Met.Your.Mother.S02.Ge...
Akte.X.S01.German.DTS.DL.108...
Den.Himmel.gibts.echt.DL.108...
Vikings.S02.German.DL.1080p....
Be.Kind.Rewind.Abgedreht.200...
Be.Kind.Rewind.Abgedreht.200...
Dracula.The.Dark.Lord.2012.G...
21.2008.German.DL.1080p.BluR...
Achtung.fertig.WK.Swissgerma...
The.Ouija.Exorcism.2015.MULT...

Filme
Ghost.Rider.Extended.Version...
Feind.ist.wer.anders.denkt.G...
American.Psycho.2000.UNRATED...
Zurueck.aus.der.Hoelle.aka.I...
Halloween.UNCUT.1978.German....
Der.Prinzipal.-.Einer.gegen....
Perfect.Creature.2006.German...
Die.Entfuehrung.der.U-Bahn.P...
Snowfall.S02.GERMAN.DUBBED.7...
The.Flash.2014.S04.COMPLETE....
Gotham.S04.COMPLETE.GERMAN.7...
Zion.2018.German.DL.Doku.108...
Feind.ist.wer.anders.denkt.G...
Shana.Das.Wolfsmaedchen.2014...
Inside.Lehman.Brothers.-.Whi...
Das.Domino.Komplott.1977.Ger...
Spuren.Lass.alles.hinter.Dir...
Gladiator.2000.Theatrical.cu...
Bestie.Mensch.1938.German.AC...
Testament.of.Youth.2014.Germ...
American.Psycho.2000.UNRATED...
Hickok.2017.German.DL.DTSD.2...
The.Purge.S01.German.DD+51.D...
The.Purge.S01.German.DD+51.D...

 
 
Jane.2017.German.DL.Doku.720p.WEB.x264.iNTERNAL-BiGiNT

Jahr: 2017
Genre: Dokumentation
Sprache: Deutsch AC3 | Englisch AC3
Laufzeit: 1h 30mn
Bitrate: 5 556 Kbps
Format: MKV
Größe: 3.50 GiB
Release:

Beschreibung:

Dokumentarfilm über die Umweltschützerin Jane Goodall. Gezeigt wird ihre Geschichte ab 1960, als die damals 26-jährige Britin in Tansania ihren überwiegend männlichen Tierforscherkollegen zeigt, dass sie jahrelang falsch gearbeitet haben. Goodall geht anders an die Sache ran, ohne Training, aber angetrieben von einer großen Tierliebe: Sie nimmt sich Zeit, um das Vertrauen der örtlichen Schimpansen zu erlangen – und entdeckt, dass die Tiere sehr intelligent und sozial eingestellt sind. 1964 kommt der niederländische Filmemacher Hugo van Lawick nach Tansania, um die Arbeit von Goodall zu dokumentieren. Die beiden verlieben sich, heiraten und setzen ein gemeinsames Kind in die Welt. Lawicks Tieraufnahmen, exklusive Interviews mit Goodall, Forschungsmaterial des Jane Goodall Instituts und Familienvideos sind der Stoff, aus dem „Jane“-Regisseur Brett Morgen seine Doku baute. Es ist ein Film über eine Frau, die sich gegen starke Widerstände durchsetzt.



Complete name                            : jane.2017.german.dl.doku.720p.web.x264.internal-bigint.mkv
Format                                   : Matroska
Format version                           : Version 4 / Version 2
File size                                : 3.50 GiB
Duration                                 : 1h 30mn
Overall bit rate mode                    : Variable
Overall bit rate                         : 5 556 Kbps
Encoded date                             : UTC 2018-09-13 21:08:09
Writing application                      : mkvmerge v22.0.0 ('At The End Of The World') 64-bit
Writing library                          : libebml v1.3.5 + libmatroska v1.4.8
DURATION                                 : 01:29:42.125000000
NUMBER_OF_FRAMES                         : 1034
NUMBER_OF_BYTES                          : 35118
_STATISTICS_WRITING_APP                  : mkvmerge v22.0.0 ('At The End Of The World') 64-bit
_STATISTICS_WRITING_DATE_UTC             : 2018-09-13 21:08:09
_STATISTICS_TAGS                         : BPS DURATION NUMBER_OF_FRAMES NUMBER_OF_BYTES

Video
ID                                       : 1
Format                                   : AVC
Format/Info                              : Advanced Video Codec
Format profile                           : [email protected]
Format settings, CABAC                   : Yes
Format settings, ReFrames                : 3 frames
Codec ID                                 : V_MPEG4/ISO/AVC
Duration                                 : 1h 30mn
Bit rate mode                            : Variable
Bit rate                                 : 4 165 Kbps
Nominal bit rate                         : 4 420 Kbps
Maximum bit rate                         : 6 630 Kbps
Width                                    : 1 280 pixels
Height                                   : 720 pixels
Display aspect ratio                     : 16:9
Frame rate mode                          : Constant
Frame rate                               : 23.976 fps
Color space                              : YUV
Chroma subsampling                       : 4:2:0
Bit depth                                : 8 bits
Scan type                                : Progressive
Bits/(Pixel*Frame)                       : 0.189
Stream size                              : 2.63 GiB (75%)
Writing library                          : x264 core 148 r2715 7e75228
Encoding settings                        : cabac=1 / ref=3 / deblock=1:0:0 / analyse=0x1:0x111 / me=umh / subme=10 / psy=1 / psy_rd=1.00:0.00 / mixed_ref=1 / me_range=24 / chroma_me=1 / trellis=2 / 8x8dct=0 / cqm=0 / deadzone=21,11 / fast_pskip=1 / chroma_qp_offset=-2 / threads=8 / lookahead_threads=1 / sliced_threads=0 / nr=0 / decimate=1 / interlaced=0 / bluray_compat=0 / stitchable=1 / constrained_intra=0 / bframes=2 / b_pyramid=0 / b_adapt=2 / b_bias=0 / direct=3 / weightb=1 / open_gop=0 / weightp=2 / keyint=48 / keyint_min=25 / scenecut=0 / intra_refresh=0 / rc_lookahead=48 / rc=2pass / mbtree=1 / bitrate=4420 / ratetol=1.0 / qcomp=0.50 / qpmin=6 / qpmax=51 / qpstep=4 / cplxblur=20.0 / qblur=0.5 / vbv_maxrate=6630 / vbv_bufsize=8840 / nal_hrd=vbr / filler=0 / ip_ratio=1.40 / aq=1:1.00
Default                                  : Yes
Forced                                   : No

Audio #1
ID                                       : 2
Format                                   : E-AC-3
Format/Info                              : Audio Coding 3
Format settings, Endianness              : Big
Codec ID                                 : A_EAC3
Duration                                 : 1h 30mn
Bit rate mode                            : Constant
Bit rate                                 : 640 Kbps
Channel(s)                               : 6 channels
Channel positions                        : Front: L C R, Side: L R, LFE
Sampling rate                            : 48.0 KHz
Compression mode                         : Lossy
Stream size                              : 413 MiB (12%)
Language                                 : German
Default                                  : Yes
Forced                                   : No

Audio #2
ID                                       : 3
Format                                   : E-AC-3
Format/Info                              : Audio Coding 3
Format settings, Endianness              : Big
Codec ID                                 : A_EAC3
Duration                                 : 1h 30mn
Bit rate mode                            : Constant
Bit rate                                 : 640 Kbps
Channel(s)                               : 6 channels
Channel positions                        : Front: L C R, Side: L R, LFE
Sampling rate                            : 48.0 KHz
Compression mode                         : Lossy
Stream size                              : 413 MiB (12%)
Language                                 : English
Default                                  : No
Forced                                   : No

Text #1
ID                                       : 4
Format                                   : UTF-8
Codec ID                                 : S_TEXT/UTF8
Codec ID/Info                            : UTF-8 Plain Text
Title                                    : Forced
Language                                 : English
Default                                  : No
Forced                                   : No

Text #2
ID                                       : 5
Format                                   : UTF-8
Codec ID                                 : S_TEXT/UTF8
Codec ID/Info                            : UTF-8 Plain Text
Title                                    : Forced
Language                                 : German
Default                                  : Yes
Forced                                   : Yes

Text #3
ID                                       : 6
Format                                   : UTF-8
Codec ID                                 : S_TEXT/UTF8
Codec ID/Info                            : UTF-8 Plain Text
Title                                    : Deutsch
Language                                 : German
Default                                  : No
Forced                                   : No

Text #4
ID                                       : 7
Format                                   : UTF-8
Codec ID                                 : S_TEXT/UTF8
Codec ID/Info                            : UTF-8 Plain Text
Title                                    : Englisch (CC)
Language                                 : English
Default                                  : No
Forced                                   : No


Download:
Share Online Share OnlineShare OnlineShare Online
 

Kommentare