Empress Ki | Facebook | Ржев – Сталинград Скрытый гамбит маршала...Sorjonen HDTV | Mamma Mia! film | The Collection
 


 

DNS SERVER AENDERNum der staatlichen Zensur zu umgehen. Sollten wir von eurem Provider geseprrt werden, nutzt den TOR BROWSER oder ändert euren DNS SERVER.

Filmwünsche können bei uns im Forum abgegeben werden

Wir Speichern Nicht




 
 
 
Top Releases
Der.Nebelmann.2017.GERMAN.72...
Der.Nebelmann.2017.GERMAN.10...
Der.Nebelmann.2017.GERMAN.DU...
Oceans.8.2018.German.AC3.5.1...
Oceans.8.2018.German.AC3.5.1...
Oceans.8.2018.German.AC3.5.1...
Anon.2018.German.AC3.DL.720p...
Anon.2018.German.AC3.DL.1080...
Solo.A.Star.Wars.Story.2018....
Solo.A.Star.Wars.Story.2018....

Cinedubs
Skyscraper.German.DL.AC3.Dub...
Skyscraper.German.DL.AC3.Dub...
Hotel.Artemis.2018.GERMAN.DL...
Hotel.Artemis.2018.GERMAN.DL...
The.First.Purge.2018.German....
The.First.Purge.2018.German....
The.First.Purge.2018.German....
Hotel.Transsilvanien.3.Ein.M...
Hotel.Transsilvanien.3.Ein.M...
Hotel.Transsilvanien.3.Ein.M...

Neuerscheinungen 2017-18
Johnny.Guitar.1954.MULTi.COM...
X-Men.Der.letzte.Widerstand....
Mom.and.Dad.2017.GERMAN.DL.1...
Housesitter.1992.MULTi.COMPL...
X-Men.2.X2.2003.COMPLETE.UHD...
Neun.Monate.Nine.Months.1995...
X-Men.2000.COMPLETE.UHD.BLUR...
Mom.and.Dad.2017.MULTI.COMPL...
The.Asian.Connection.2016.CO...
Mom.and.Dad.2017.GERMAN.720p...

XXX
1By-Day.18.09.19.Florane.Rus...
Aziani.18.09.15.Kacey.Miller...
BackroomCastingCouch.18.09.1...
1000Facials.18.09.17.Olive.G...
AnalTeenAngels.18.09.18.Mery...
Bang.Europe.4.XXX.720p.WEBRi...
AssParade.18.09.17.Valentina...
AllOver30.18.09.18.Kiana.Kra...
Alone.In.Her.Room.2.XXX.720p...
Amateur.Teen.Lap.Grinders.2....
Bang.Europe.4.XXX.1080p.WEBR...
AllOver30.18.09.20.Cierra.Ma...
ALSScan.18.09.19.Paige.Owens...
AuntJudys.18.09.17.Helen.Vol...
Alone.In.Her.Room.2.XXX.1080...
ATKHairy.18.09.14.Alice.Merc...
BangBros18.18.09.18.Ana.Rose...
Bang.RealMILFs.18.09.18.Jasm...
Anilos.18.09.18.Tracey.Hein....
Bang.RealTeens.18.09.17.Jess...

3D
Sharknado.6.The.Last.One.3D....
Solo.A.Star.Wars.Story.3D.20...
Solo.A.Star.Wars.Story.3D.20...
Die.Biene.Maja.2.Die.Honigsp...
Avengers.Infinity.War.3D.201...
Avengers.Infinity.War.3D.201...
Rampage.Big.Meets.Bigger.3D....
Rampage.Big.Meets.Bigger.3D....
Rampage.Big.Meets.Bigger.3D....
Winter.Games.3D.2013.DUAL.CO...
Tomb.Raider.3D.2018.German.7...
Rampage.Big.Meets.Bigger.3D....
Rampage.Big.Meets.Bigger.3D....
Tomb.Raider.3D.2018.MULTi.CO...
Pacific.Rim.Uprising.3D.2018...

Old_Stuff
Schimanski.-.Duisburg.Ruhror...
Akte.X.S02.German.DTS.DL.108...
How.I.Met.Your.Mother.S02.Ge...
Akte.X.S01.German.DTS.DL.108...
Den.Himmel.gibts.echt.DL.108...
Vikings.S02.German.DL.1080p....
Be.Kind.Rewind.Abgedreht.200...
Be.Kind.Rewind.Abgedreht.200...
Dracula.The.Dark.Lord.2012.G...
21.2008.German.DL.1080p.BluR...
Achtung.fertig.WK.Swissgerma...
The.Ouija.Exorcism.2015.MULT...
Meine.liebe.Rabenmutter.germ...
Da.Vincis.Demons.S01.Complet...
Eragon.Das.Vermaechtnis.der....

Filme
Die.durch.die.Hoelle.gehen.1...
Oceans.8.German.DL.AC3.Dubbe...
Oceans.8.German.DL.AC3.Dubbe...
Neun.Monate.1995.German.720p...
Red.Nights.2009.German.1080p...
Pinup.Dolls.on.Ice.Uncut.201...
Die.Zwangsjacke.1964.German....
Der.Club.der.Teufelinnen.199...
Dont.Move.Halt.still.2017.Ge...
Dope.COMPLETE.German.DD51.ML...
Oceans.8.2018.German.AC3.216...
Wild.at.Heart.1990.German.AC...
Wild.at.Heart.1990.German.AC...
Die.Stiefbrueder.2008.German...
Blacula.1972.German.AC3D.DL....
Solo.A.Star.Wars.Story.2018....
Belvedere.raeumt.auf.1948.Ge...
Solo.A.Star.Wars.Story.2018....
Mel.Brooks.Fruehling.fuer.Hi...
Mel.Brooks.Fruehling.fuer.Hi...
Die.Brut.GERMAN.1979.DL.1080...
Die.Brut.GERMAN.1979.DL.720p...
Willkommen.im.Tollhaus.1995....
Willkommen.im.Tollhaus.1995....

 
 
Die.durch.die.Hoelle.gehen.1978.Remastered.German.DL.AC3D.720p.BluRay.x264-GSG9

Jahr: 1978
Genre: Drama | Kriegsfilm
Sprache: Deutsch AC3 | Englisch DTS
Laufzeit: 3h 3mn
Bitrate: 9 155 Kbps
Format: MKV
Größe: 11.8 GiB
Release:

Beschreibung:

Eine schäbige Industriestadt in Pennsylvania. Nick und Michael feiern die Hochzeit ihres Freundes Steven und genießen ihre Freiheit: Ein letztes Mal geht es in die Berge auf die Jagd… Schon am nächsten Tag werden die drei zum Kriegsdienst nach Vietnam eingezogen und dort erwartet sie die Hölle. Nach erbarmungslosem Kampf werden die drei im Dschungel gefangengenommen. Ihre Aufseher spielen mit den Gefangenen ein sadistisches Spiel: Russisches Roulette. Michael sieht nur eine Fluchtmöglichkeit. Er schlägt den Vietkong eine noch tödlichere Variante vor…



Die.durch.die.Hoelle.gehen.1978.Remastered.German.DL.AC3D.720p.BluRay.x264-GSG9.mkv
Format                                   : Matroska
Format version                           : Version 4 / Version 2
File size                                : 11.8 GiB
Duration                                 : 3h 3mn
Overall bit rate                         : 9 155 Kbps
Encoded date                             : UTC 2018-09-27 08:16:13
Writing application                      : mkvmerge v20.0.0 ('I Am The Sun') 64-bit
Writing library                          : libebml v1.3.5 + libmatroska v1.4.8
DURATION                                 : 03:03:46.656000000
NUMBER_OF_FRAMES                         : 344583
NUMBER_OF_BYTES                          : 882132480
_STATISTICS_WRITING_APP                  : mkvmerge v20.0.0 ('I Am The Sun') 64-bit
_STATISTICS_WRITING_DATE_UTC             : 2018-09-27 08:16:13
_STATISTICS_TAGS                         : BPS DURATION NUMBER_OF_FRAMES NUMBER_OF_BYTES

Video
ID                                       : 1
Format                                   : AVC
Format/Info                              : Advanced Video Codec
Format profile                           : [email protected]
Format settings, CABAC                   : Yes
Format settings, ReFrames                : 12 frames
Codec ID                                 : V_MPEG4/ISO/AVC
Duration                                 : 3h 3mn
Bit rate                                 : 7 005 Kbps
Width                                    : 1 280 pixels
Height                                   : 544 pixels
Display aspect ratio                     : 2.35:1
Frame rate mode                          : Constant
Frame rate                               : 24.000 fps
Color space                              : YUV
Chroma subsampling                       : 4:2:0
Bit depth                                : 8 bits
Scan type                                : Progressive
Bits/(Pixel*Frame)                       : 0.419
Stream size                              : 8.76 GiB (75%)
Writing library                          : x264 core 157 r2932 303c484
Encoding settings                        : cabac=1 / ref=12 / deblock=1:-3:-3 / analyse=0x3:0x133 / me=umh / subme=10 / psy=1 / psy_rd=1.10:0.00 / mixed_ref=1 / me_range=32 / chroma_me=1 / trellis=2 / 8x8dct=1 / cqm=0 / deadzone=21,11 / fast_pskip=0 / chroma_qp_offset=-2 / threads=17 / lookahead_threads=2 / sliced_threads=0 / nr=0 / decimate=1 / interlaced=0 / bluray_compat=0 / constrained_intra=0 / bframes=8 / b_pyramid=2 / b_adapt=2 / b_bias=0 / direct=3 / weightb=1 / open_gop=0 / weightp=2 / keyint=240 / keyint_min=24 / scenecut=40 / intra_refresh=0 / rc_lookahead=60 / rc=2pass / mbtree=1 / bitrate=7005 / ratetol=1.0 / qcomp=0.60 / qpmin=0 / qpmax=69 / qpstep=4 / cplxblur=20.0 / qblur=0.5 / ip_ratio=1.30 / aq=3:0.75
Default                                  : Yes
Forced                                   : No
DURATION                                 : 03:03:46.792000000
NUMBER_OF_FRAMES                         : 264643
NUMBER_OF_BYTES                          : 9653193361
_STATISTICS_WRITING_APP                  : mkvmerge v20.0.0 ('I Am The Sun') 64-bit
_STATISTICS_WRITING_DATE_UTC             : 2018-09-27 08:16:13
_STATISTICS_TAGS                         : BPS DURATION NUMBER_OF_FRAMES NUMBER_OF_BYTES

Audio #1
ID                                       : 2
Format                                   : AC-3
Format/Info                              : Audio Coding 3
Mode extension                           : CM (complete main)
Format settings, Endianness              : Big
Codec ID                                 : A_AC3
Duration                                 : 3h 3mn
Bit rate mode                            : Constant
Bit rate                                 : 640 Kbps
Channel(s)                               : 2 channels
Channel positions                        : Front: L R
Sampling rate                            : 48.0 KHz
Bit depth                                : 16 bits
Compression mode                         : Lossy
Stream size                              : 841 MiB (7%)
Language                                 : German
Default                                  : Yes
Forced                                   : No
DURATION                                 : 03:03:46.613000000
NUMBER_OF_FRAMES                         : 1033745
NUMBER_OF_BYTES                          : 2079894940
_STATISTICS_WRITING_APP                  : mkvmerge v20.0.0 ('I Am The Sun') 64-bit
_STATISTICS_WRITING_DATE_UTC             : 2018-09-27 08:16:13
_STATISTICS_TAGS                         : BPS DURATION NUMBER_OF_FRAMES NUMBER_OF_BYTES

Audio #2
ID                                       : 3
Format                                   : DTS
Format/Info                              : Digital Theater Systems
Mode                                     : 16
Format settings, Endianness              : Big
Codec ID                                 : A_DTS
Duration                                 : 3h 3mn
Bit rate mode                            : Constant
Bit rate                                 : 1 509 Kbps
Channel(s)                               : 6 channels
Channel positions                        : Front: L C R, Side: L R, LFE
Sampling rate                            : 48.0 KHz
Bit depth                                : 24 bits
Compression mode                         : Lossy
Stream size                              : 1.94 GiB (16%)
Language                                 : English
Default                                  : No
Forced                                   : No
DURATION                                 : 02:56:12.625000000
NUMBER_OF_FRAMES                         : 1561
NUMBER_OF_BYTES                          : 47197
_STATISTICS_WRITING_APP                  : mkvmerge v20.0.0 ('I Am The Sun') 64-bit
_STATISTICS_WRITING_DATE_UTC             : 2018-09-27 08:16:13
_STATISTICS_TAGS                         : BPS DURATION NUMBER_OF_FRAMES NUMBER_OF_BYTES

Text #1
ID                                       : 4
Format                                   : UTF-8
Codec ID                                 : S_TEXT/UTF8
Codec ID/Info                            : UTF-8 Plain Text
Language                                 : English
Default                                  : No
Forced                                   : No
DURATION                                 : 02:57:28.833000000
NUMBER_OF_FRAMES                         : 1703
NUMBER_OF_BYTES                          : 51249
_STATISTICS_WRITING_APP                  : mkvmerge v20.0.0 ('I Am The Sun') 64-bit
_STATISTICS_WRITING_DATE_UTC             : 2018-09-27 08:16:13
_STATISTICS_TAGS                         : BPS DURATION NUMBER_OF_FRAMES NUMBER_OF_BYTES

Text #2
ID                                       : 5
Format                                   : UTF-8
Codec ID                                 : S_TEXT/UTF8
Codec ID/Info                            : UTF-8 Plain Text
Title                                    : SDH
Language                                 : English
Default                                  : No
Forced                                   : No


Download:
Share Online Share OnlineShare OnlineShare Online
 

Kommentare