Forgot Password? | Le Voyage de Ricky Streaming HD Le Voyage de Ricky Streaming Full-HD Le Voyage de Ricky Streaming HD [1080p] gratuit en illimite - Orphelin à la naissance, Richard croit dur comme fer qu’il est une cigogne, comme tous les membres de sa famille d’adoption. Mais quand arrive le moment de la migration, ces derniers doivent lui avouer la vérité : Richard n’est qu’un petit moineau, qui ne ... | Anatomy of a Love SeenBandes dessinées | Weekly Idol Episode 235 | Thriller
 


 

DNS SERVER AENDERNum der staatlichen Zensur zu umgehen. Sollten wir von eurem Provider geseprrt werden, nutzt den TOR BROWSER oder ändert euren DNS SERVER.

Filmwünsche können bei uns im Forum abgegeben werden

Wir Speichern Nicht




 
 
 
Top Releases
Der.Nebelmann.2017.GERMAN.72...
Der.Nebelmann.2017.GERMAN.10...
Der.Nebelmann.2017.GERMAN.DU...
Oceans.8.2018.German.AC3.5.1...
Oceans.8.2018.German.AC3.5.1...
Oceans.8.2018.German.AC3.5.1...
Anon.2018.German.AC3.DL.720p...
Anon.2018.German.AC3.DL.1080...
Solo.A.Star.Wars.Story.2018....
Solo.A.Star.Wars.Story.2018....

Cinedubs
Skyscraper.German.DL.AC3.Dub...
Hotel.Artemis.2018.GERMAN.DL...
Hotel.Artemis.2018.GERMAN.DL...
The.First.Purge.2018.German....
The.First.Purge.2018.German....
The.First.Purge.2018.German....
Hotel.Transsilvanien.3.Ein.M...
Hotel.Transsilvanien.3.Ein.M...
Hotel.Transsilvanien.3.Ein.M...
Hotel.Transsilvanien.3.Ein.M...

Neuerscheinungen 2017-18
Johnny.Guitar.1954.MULTi.COM...
X-Men.Der.letzte.Widerstand....
Mom.and.Dad.2017.GERMAN.DL.1...
Housesitter.1992.MULTi.COMPL...
X-Men.2.X2.2003.COMPLETE.UHD...
Neun.Monate.Nine.Months.1995...
X-Men.2000.COMPLETE.UHD.BLUR...
Mom.and.Dad.2017.MULTI.COMPL...
The.Asian.Connection.2016.CO...
Mom.and.Dad.2017.GERMAN.720p...

XXX
1By-Day.18.09.19.Florane.Rus...
Aziani.18.09.15.Kacey.Miller...
BackroomCastingCouch.18.09.1...
1000Facials.18.09.17.Olive.G...
AnalTeenAngels.18.09.18.Mery...
Bang.Europe.4.XXX.720p.WEBRi...
AssParade.18.09.17.Valentina...
AllOver30.18.09.18.Kiana.Kra...
Alone.In.Her.Room.2.XXX.720p...
Amateur.Teen.Lap.Grinders.2....
Bang.Europe.4.XXX.1080p.WEBR...
AllOver30.18.09.20.Cierra.Ma...
ALSScan.18.09.19.Paige.Owens...
AuntJudys.18.09.17.Helen.Vol...
Alone.In.Her.Room.2.XXX.1080...
ATKHairy.18.09.14.Alice.Merc...
BangBros18.18.09.18.Ana.Rose...
Bang.RealMILFs.18.09.18.Jasm...
Anilos.18.09.18.Tracey.Hein....
Bang.RealTeens.18.09.17.Jess...

3D
Sharknado.6.The.Last.One.3D....
Solo.A.Star.Wars.Story.3D.20...
Solo.A.Star.Wars.Story.3D.20...
Die.Biene.Maja.2.Die.Honigsp...
Avengers.Infinity.War.3D.201...
Avengers.Infinity.War.3D.201...
Rampage.Big.Meets.Bigger.3D....
Rampage.Big.Meets.Bigger.3D....
Rampage.Big.Meets.Bigger.3D....
Winter.Games.3D.2013.DUAL.CO...
Tomb.Raider.3D.2018.German.7...
Rampage.Big.Meets.Bigger.3D....
Rampage.Big.Meets.Bigger.3D....
Tomb.Raider.3D.2018.MULTi.CO...
Pacific.Rim.Uprising.3D.2018...

Old_Stuff
Schimanski.-.Duisburg.Ruhror...
Akte.X.S02.German.DTS.DL.108...
How.I.Met.Your.Mother.S02.Ge...
Akte.X.S01.German.DTS.DL.108...
Den.Himmel.gibts.echt.DL.108...
Vikings.S02.German.DL.1080p....
Be.Kind.Rewind.Abgedreht.200...
Be.Kind.Rewind.Abgedreht.200...
Dracula.The.Dark.Lord.2012.G...
21.2008.German.DL.1080p.BluR...
Achtung.fertig.WK.Swissgerma...
The.Ouija.Exorcism.2015.MULT...
Meine.liebe.Rabenmutter.germ...
Da.Vincis.Demons.S01.Complet...
Eragon.Das.Vermaechtnis.der....

Filme
Oceans.8.German.DL.AC3.Dubbe...
Oceans.8.German.DL.AC3.Dubbe...
Neun.Monate.1995.German.720p...
Red.Nights.2009.German.1080p...
Pinup.Dolls.on.Ice.Uncut.201...
Die.Zwangsjacke.1964.German....
Der.Club.der.Teufelinnen.199...
Dont.Move.Halt.still.2017.Ge...
Dope.COMPLETE.German.DD51.ML...
Oceans.8.2018.German.AC3.216...
Wild.at.Heart.1990.German.AC...
Wild.at.Heart.1990.German.AC...
Die.Stiefbrueder.2008.German...
Blacula.1972.German.AC3D.DL....
Solo.A.Star.Wars.Story.2018....
Belvedere.raeumt.auf.1948.Ge...
Solo.A.Star.Wars.Story.2018....
Mel.Brooks.Fruehling.fuer.Hi...
Mel.Brooks.Fruehling.fuer.Hi...
Die.Brut.GERMAN.1979.DL.1080...
Die.Brut.GERMAN.1979.DL.720p...
Willkommen.im.Tollhaus.1995....
Willkommen.im.Tollhaus.1995....
Battlestar.Galactica.S01-S04...

 
 
Der.Nebelmann.2017.GERMAN.720p.BluRay.x264-UNiVERSUM

Jahr: 2017
Genre: Thriller
Sprache: Deutsch DTS
Laufzeit: 2h 8mn
Bitrate: 2 670 Kbps
Format: MKV
Größe: 2.40 GiB
Release:

Beschreibung:

Jahrzehnte sind vergangen, seitdem in einer entlegenen italienischen Alpengemeinde ein Mädchen spurlos verschwand. Jetzt ist es wieder so weit. Wieder wird ein junges Mädchen vermisst. Und Sonderermittler Vogel, bekannt für seine ungewöhnlichen Methoden, ist gefragt, Lichts ins Dunkel zu bringen – was er für gewöhnlich so medienwirksam wie nur möglich tut. Hier sticht er in ein Wespennest, denn in der ach so friedlichen Gemeinde scheint jeder Dreck am Stecken zu haben – und für das Verbrechen in Frage zu kommen.



Complete name                            : der.nebelmann.2017.german.720p.bluray.x264-universum.mkv
Format                                   : Matroska
Format version                           : Version 4 / Version 2
File size                                : 2.40 GiB
Duration                                 : 2h 8mn
Overall bit rate                         : 2 670 Kbps
Encoded date                             : UTC 2018-09-26 18:20:32
Writing application                      : mkvmerge v7.9.0 ('Birds') 64bit
Writing library                          : libebml v1.3.1 + libmatroska v1.4.2
DURATION                                 : 01:47:32.958000000
NUMBER_OF_FRAMES                         : 6
NUMBER_OF_BYTES                          : 121
_STATISTICS_WRITING_APP                  : mkvmerge v7.9.0 ('Birds') 64bit
_STATISTICS_WRITING_DATE_UTC             : 2018-09-26 18:20:32
_STATISTICS_TAGS                         : BPS DURATION NUMBER_OF_FRAMES NUMBER_OF_BYTES

Video
ID                                       : 1
Format                                   : AVC
Format/Info                              : Advanced Video Codec
Format profile                           : High@L4.1
Format settings, CABAC                   : Yes
Format settings, ReFrames                : 5 frames
Codec ID                                 : V_MPEG4/ISO/AVC
Duration                                 : 2h 8mn
Bit rate                                 : 1 108 Kbps
Width                                    : 1 280 pixels
Height                                   : 536 pixels
Display aspect ratio                     : 2.40:1
Frame rate mode                          : Constant
Frame rate                               : 24.000 fps
Color space                              : YUV
Chroma subsampling                       : 4:2:0
Bit depth                                : 8 bits
Scan type                                : Progressive
Bits/(Pixel*Frame)                       : 0.067
Stream size                              : 1 020 MiB (41%)
Writing library                          : x264 core 155 r2901 7d0ff22
Encoding settings                        : cabac=1 / ref=5 / deblock=1:-1:-1 / analyse=0x3:0x133 / me=umh / subme=8 / psy=1 / psy_rd=1.00:0.15 / mixed_ref=1 / me_range=16 / chroma_me=1 / trellis=2 / 8x8dct=1 / cqm=0 / deadzone=21,11 / fast_pskip=0 / chroma_qp_offset=-3 / threads=12 / lookahead_threads=2 / sliced_threads=0 / nr=0 / decimate=1 / interlaced=0 / bluray_compat=0 / constrained_intra=0 / bframes=3 / b_pyramid=2 / b_adapt=1 / b_bias=0 / direct=3 / weightb=1 / open_gop=0 / weightp=2 / keyint=250 / keyint_min=24 / scenecut=40 / intra_refresh=0 / rc_lookahead=40 / rc=crf / mbtree=1 / crf=20.0 / qcomp=0.60 / qpmin=10 / qpmax=69 / qpstep=4 / ip_ratio=1.40 / aq=1:1.00
Language                                 : German
Default                                  : Yes
Forced                                   : No
DURATION                                 : 02:08:42.000000000
NUMBER_OF_FRAMES                         : 185328
NUMBER_OF_BYTES                          : 1118470819
_STATISTICS_WRITING_APP                  : mkvmerge v7.9.0 ('Birds') 64bit
_STATISTICS_WRITING_DATE_UTC             : 2018-09-26 18:20:32
_STATISTICS_TAGS                         : BPS DURATION NUMBER_OF_FRAMES NUMBER_OF_BYTES

Audio
ID                                       : 2
Format                                   : DTS
Format/Info                              : Digital Theater Systems
Mode                                     : 16
Format settings, Endianness              : Big
Codec ID                                 : A_DTS
Duration                                 : 2h 8mn
Bit rate mode                            : Constant
Bit rate                                 : 1 509 Kbps
Channel(s)                               : 6 channels
Channel positions                        : Front: L C R, Side: L R, LFE
Sampling rate                            : 48.0 KHz
Bit depth                                : 24 bits
Compression mode                         : Lossy
Stream size                              : 1.36 GiB (57%)
Title                                    : DTS
Language                                 : German
Default                                  : Yes
Forced                                   : No

Text
ID                                       : 3
Format                                   : UTF-8
Codec ID                                 : S_TEXT/UTF8
Codec ID/Info                            : UTF-8 Plain Text
Title                                    : Forced
Language                                 : German
Default                                  : Yes
Forced                                   : No


Download:
Share Online Share OnlineShare OnlineShare Online
 

Kommentare