Charles S. Dutton | To Catch a Serial Killer with Trevor McDonald | Vaughn MyovichKINGS OF LEON - DISCOGRAPHY (2003-13) [CHANNEL NEO] | Hoje à Noite Ela Virá | Pokemon XY & Z: Volcanion y la Maravilla Mecanica
 


 

DNS SERVER AENDERNum der staatlichen Zensur zu umgehen. Sollten wir von eurem Provider geseprrt werden, nutzt den TOR BROWSER oder ändert euren DNS SERVER.

Filmwünsche können bei uns im Forum abgegeben werden

Wir Speichern Nicht




 
 
 
Top Releases
3.Tage.in.Quiberon.2018.GERM...
3.Tage.in.Quiberon.2018.GERM...
Norman.2016.German.AC3D.DL.1...
Wo.steckt.Sidney.Hall.2017.G...
Chappie.2015.German.AC3.DL.1...
Solo.A.Star.Wars.Story.2018....
Der.Buchladen.der.Florance.G...
Jurassic.World.2.Das.gefalle...
Jurassic.World.2.Das.gefalle...
Racer.and.the.Jailbird.2017....

Cinedubs
Hotel.Transsilvanien.3.Ein.M...
Hotel.Transsilvanien.3.Ein.M...
The.Seagull.Eine.unerhoerte....
The.Seagull.Eine.unerhoerte....
First.Reformed.2017.German.D...
Mamma.Mia.2.Here.We.Go.Again...
First.Reformed.German.DL.AC3...
The.First.Purge.2018.German....
No.Way.Out.Gegen.die.Flammen...
First.Reformed.German.DL.AC3...

Neuerscheinungen 2017-18
Mom.and.Dad.2017.GERMAN.720p...
Solo.A.Star.Wars.Story.2018....
3.Tage.in.Quiberon.2018.GERM...
The.Asian.Connection.2016.GE...
The.Asian.Connection.2016.GE...
Sharknado.6.The.Last.One.201...
Sharknado.6.The.Last.One.201...
Mom.and.Dad.2017.German.AC3....
Jurassic.World.2.Das.gefalle...
Jurassic.World.2.Das.gefalle...

XXX
TeenyBlack.18.09.09.Demi.Sut...
Strap.On.Sallys.XXX.720p.WEB...
TeachMeFisting.18.09.10.Anto...
TabooPOV.18.09.02.Silvia.Sai...
StreetSuckers.18.09.09.Jade....
Swallowed.18.09.07.Joseline....
TheLifeErotic.18.09.07.Nata....
SexArt.18.09.07.Amarna.Mille...
RealityJunkies.18.09.07.Rive...
Spizoo.18.09.10.Destiny.Love...
SexAndSubmission.18.09.07.Pr...
TabooPOV.18.08.30.Ryan.Keely...
SexWithMuslims.18.09.07.Barb...
Roccos.Dirty.Girls.4.XXX.iNT...
TeenCreeper.E29.Bambi.Black....
TeensLikeItBig.18.09.09.Ella...
ShareMyBF.18.09.07.Ashley.Ad...
TeensLoveBlackCocks.18.09.10...
Teenikini.E59.Dillion.Harper...
TheLisaAnn.18.09.07.Feeling....

3D
Sharknado.6.The.Last.One.3D....
Solo.A.Star.Wars.Story.3D.20...
Solo.A.Star.Wars.Story.3D.20...
Die.Biene.Maja.2.Die.Honigsp...
Avengers.Infinity.War.3D.201...
Avengers.Infinity.War.3D.201...
Rampage.Big.Meets.Bigger.3D....
Rampage.Big.Meets.Bigger.3D....
Rampage.Big.Meets.Bigger.3D....
Winter.Games.3D.2013.DUAL.CO...
Tomb.Raider.3D.2018.German.7...
Rampage.Big.Meets.Bigger.3D....
Rampage.Big.Meets.Bigger.3D....
Tomb.Raider.3D.2018.MULTi.CO...
Pacific.Rim.Uprising.3D.2018...

Old_Stuff
Schimanski.-.Duisburg.Ruhror...
Akte.X.S02.German.DTS.DL.108...
How.I.Met.Your.Mother.S02.Ge...
Akte.X.S01.German.DTS.DL.108...
Den.Himmel.gibts.echt.DL.108...
Vikings.S02.German.DL.1080p....
Be.Kind.Rewind.Abgedreht.200...
Be.Kind.Rewind.Abgedreht.200...
Dracula.The.Dark.Lord.2012.G...
21.2008.German.DL.1080p.BluR...
Achtung.fertig.WK.Swissgerma...
The.Ouija.Exorcism.2015.MULT...
Meine.liebe.Rabenmutter.germ...
Da.Vincis.Demons.S01.Complet...
Eragon.Das.Vermaechtnis.der....

Filme
X.Men.Der.letzte.Widerstand....
No.Good.Deed.2002.GERMAN.DL....
Scum.-.Abschaum.1979.German....
The.Big.Bang.Theory.S11.Germ...
The.Big.Bang.Theory.S11.Germ...
X.Men.-.Der.letzte.Widerstan...
Better.Call.Saul.S04.German....
Better.Call.Saul.S04.German....
Pater.Brown.-.Das.schwarze.S...
So.gruen.war.mein.Tal.1941.G...
Deja.Vu.Wettlauf.gegen.die.Z...
This.Is.Us.S02.COMPLETE.Germ...
This.Is.Us.S02.COMPLETE.Germ...
Into.the.Badlands.S03.COMPLE...
Into.the.Badlands.S03.COMPLE...
Four.Riders.1972.German.720p...
Four.Riders.1972.German.1080...
Gosford.Park.2001.German.DL....
Gosford.Park.2001.German.720...
Succession.S01.COMPLETE.Germ...
Succession.S01.COMPLETE.Germ...
X-MEN.2.2003.German.UHDBD.21...
X.Men.2.2003.German.DL.2160p...
Fear.The.Walking.Dead.S04.Ge...

 
 
Hotel.Transsilvanien.3.Ein.Monster.Urlaub.German.DL.AC3.Dubbed.720p.WEB.h264-PsO

Jahr: 2018
Genre: Animation, Komödie
Sprache: Deutsch AC3 | Englisch AC3
Laufzeit: 1h 37mn
Bitrate: 4 616 Kbps
Format: MKV
Größe: 3.14 GiB
Release:

Beschreibung:

Mavis (Originalstimmer: Selena Gomez) überrascht ihren Vater Dracula (Adam Sandler) mit einem Familienurlaub auf einer luxuriösen Monster-Kreuzfahrt, damit er auch einmal ausspannen kann und sich nicht nur um das Wohlbefinden der Gäste seines Hotels kümmern muss. Den Spaß können sich der Rest der Familie und die monströsen Freunde natürlich nicht entgehen lassen und schließen sich an, als der mysteriöse Kahn in See sticht. Dracula entdeckt eine längst begraben geglaubte Gefühlswelt in sich, als er Captain Ericka erblickt und sich Hals über Kopf in sie verliebt. Nun ist es an Mavis, skeptisch zu bleiben und ihren Vater zur Vorsicht zu mahnen – denn es scheint einfach zu gut, um wahr zu sein. Und ihr übervorsorglicher Instinkt trübt sie nicht, denn tatsächlich verbirgt sich hinter Ericka eine Nachfahrin von Monsterjäger und Familien-Erzfeind Van Helsing…

 

OHNE ASIA SUBS



Complete name                            : pso-hotel3_web.720p.mkv
Format                                   : Matroska
Format version                           : Version 4 / Version 2
File size                                : 3.14 GiB
Duration                                 : 1h 37mn
Overall bit rate                         : 4 616 Kbps
Encoded date                             : UTC 2018-09-25 14:30:12
Writing application                      : mkvmerge v8.0.0 ('Til The Day That I Die') 64bit
Writing library                          : libebml v1.3.1 + libmatroska v1.4.2
DURATION                                 : 01:37:19.776000000
NUMBER_OF_FRAMES                         : 182493
NUMBER_OF_BYTES                          : 163513728
_STATISTICS_WRITING_APP                  : mkvmerge v8.0.0 ('Til The Day That I Die') 64bit
_STATISTICS_WRITING_DATE_UTC             : 2018-09-25 14:30:12
_STATISTICS_TAGS                         : BPS DURATION NUMBER_OF_FRAMES NUMBER_OF_BYTES

Video
ID                                       : 1
Format                                   : AVC
Format/Info                              : Advanced Video Codec
Format profile                           : [email protected]
Format settings, CABAC                   : No
Format settings, ReFrames                : 2 frames
Codec ID                                 : V_MPEG4/ISO/AVC
Duration                                 : 1h 37mn
Bit rate                                 : 3 916 Kbps
Width                                    : 1 280 pixels
Height                                   : 688 pixels
Display aspect ratio                     : 1.85:1
Frame rate mode                          : Constant
Frame rate                               : 23.976 fps
Color space                              : YUV
Chroma subsampling                       : 4:2:0
Bit depth                                : 8 bits
Scan type                                : Progressive
Bits/(Pixel*Frame)                       : 0.185
Stream size                              : 2.66 GiB (85%)
Language                                 : English
Default                                  : Yes
Forced                                   : No
Color primaries                          : BT.709
Transfer characteristics                 : BT.709
Matrix coefficients                      : BT.709

Audio #1
ID                                       : 2
Format                                   : AC-3
Format/Info                              : Audio Coding 3
Mode extension                           : CM (complete main)
Format settings, Endianness              : Big
Codec ID                                 : A_AC3
Duration                                 : 1h 37mn
Bit rate mode                            : Constant
Bit rate                                 : 224 Kbps
Channel(s)                               : 2 channels
Channel positions                        : Front: L R
Sampling rate                            : 48.0 KHz
Bit depth                                : 16 bits
Compression mode                         : Lossy
Stream size                              : 156 MiB (5%)
Language                                 : German
Default                                  : Yes
Forced                                   : Yes

Audio #2
ID                                       : 3
Format                                   : AC-3
Format/Info                              : Audio Coding 3
Mode extension                           : CM (complete main)
Format settings, Endianness              : Big
Codec ID                                 : A_AC3
Duration                                 : 1h 37mn
Bit rate mode                            : Constant
Bit rate                                 : 384 Kbps
Channel(s)                               : 6 channels
Channel positions                        : Front: L C R, Side: L R, LFE
Sampling rate                            : 48.0 KHz
Bit depth                                : 16 bits
Compression mode                         : Lossy
Stream size                              : 267 MiB (8%)
Language                                 : English
Default                                  : No
Forced                                   : No


Download:
Share Online Share OnlineShare OnlineShare Online
 

Kommentare