MAGIX Sound Forge Pro 11 Full | Grandfathered | Dragon Ball – Bảy Viên Ngọc Rồng chap 358Age of Mythology | SKAM España (2018) | ColorNote Notepad
 


 

DNS SERVER AENDERNum der staatlichen Zensur zu umgehen. Sollten wir von eurem Provider geseprrt werden, nutzt den TOR BROWSER oder ändert euren DNS SERVER.

Filmwünsche können bei uns im Forum abgegeben werden

Wir Speichern Nicht




 
 
 
Top Releases
Stronger.2017.German.720p.Bl...
Stronger.2017.German.DL.1080...
Nur.Gott.kann.mich.richten.2...
Nur.Gott.kann.mich.richten.2...
Endspiel.2018.German.DL.Doku...
Endspiel.2018.German.DL.Doku...
Deadpool.2.THEATRiCAL.2018.G...
Deadpool.2.THEATRiCAL.2018.G...
Mercury.13.2018.German.DL.Do...
Mercury.13.2018.German.DL.Do...

Cinedubs
The.Equalizer.2.TS.LD.German...
Der.Hauptmann.2017.German.AA...
Der.Hauptmann.2017.German.AA...
Ghost.Stories.2017.German.AC...
Ghost.Stories.2017.German.AC...
Oceans.8.German.DL.AC3.Dubbe...
Oceans.8.German.DL.AC3.Dubbe...
Hereditary.Das.Vermaechtnis....
Hereditary.Das.Vermaechtnis....
Oceans.8.2018.German.DL.AC3D...

Neuerscheinungen 2017-18
Kings.2017.German.720p.BluRa...
Kings.2017.German.DL.1080p.B...
Winchester.Das.Haus.der.Verd...
Bodycheck.Youngblood.1986.MU...
The.End.2017.GERMAN.DUAL.COM...
The.End.2017.GERMAN.1080p.Bl...
Vater.des.Jahres.2018.German...
The.End.2017.GERMAN.720p.Blu...
Derren.Brown.The.Push.2018.G...
Derren.Brown.The.Push.2018.G...

XXX
WankItNow.17.09.02.Tammie.Le...
TrueAnal.18.08.16.Jillian.Ja...
WildOnCam.18.08.20.Alana.Cru...
WickedPictures.Camera.Angle....
TransAngels.18.08.06.Valenti...
Tiny4K.18.08.16.Chloe.Temple...
WankItNow.17.09.11.Candi.Kay...
WetAndPuffy.18.08.15.Sophia....
VivThomas.18.08.17.Adel.More...
WildOnCam.18.08.21.Melody.Pa...
TransAngels.18.08.13.Domino....
TonightsGirlfriend.18.08.17....
WickedPictures.Camera.Angle....
TrueAnal.18.08.21.Brooke.Ber...
WetAndPissy.18.08.21.Anna.Ra...
Throated.18.08.17.Zoey.Foxx....
Vixen.18.08.17.Emily.Willis....
Time.To.Fuck.XXX.720p.WEBRip...
WhiteGhetto.18.08.21.Lynn.Lo...
TransAngels.18.08.04.Aubrey....

3D
Avengers.Infinity.War.3D.201...
Rampage.Big.Meets.Bigger.3D....
Rampage.Big.Meets.Bigger.3D....
Rampage.Big.Meets.Bigger.3D....
Winter.Games.3D.2013.DUAL.CO...
Tomb.Raider.3D.2018.German.7...
Rampage.Big.Meets.Bigger.3D....
Rampage.Big.Meets.Bigger.3D....
Tomb.Raider.3D.2018.MULTi.CO...
Pacific.Rim.Uprising.3D.2018...
Ready.Player.One.3D.2018.Ger...
Rampage.-.Big.Meets.Bigger.2...
Ready.Player.One.2018.3D.HOU...
Ready.Player.One.2018.3D.HSB...
Ready.Player.One.3D.2018.MUL...

Old_Stuff
21.2008.German.DL.1080p.BluR...
Achtung.fertig.WK.Swissgerma...
The.Ouija.Exorcism.2015.MULT...
Meine.liebe.Rabenmutter.germ...
Da.Vincis.Demons.S01.Complet...
Eragon.Das.Vermaechtnis.der....
Adele.und.das.Geheimnis.des....
Die.fabelhafte.Welt.der.Amel...
Haus.des.Geldes.S01.German.M...
How.I.Met.Your.Mother.S01.Ge...
The.Dark.Knight.Rises.2012.M...
Weissensee.S03.2015.GERMAN.C...
Weissensee.S01+S02.2010.GERM...
Die.Unglaublichen.-.The.Incr...
Der.grosse.Trick.1978.German...

Filme
Unsere.Erde.2.2017.German.DT...
Winchester.Das.Haus.der.Verd...
Cabal.-.Die.Brut.der.Nacht.C...
Car.Wash.1976.German.AC3D.DL...
Feuer.ueber.England.1937.Ger...
Sin.City.2005.DTS-HD.German....
Elliot.das.Schmunzelmonster....
Nur.fuer.Offiziere.1964.Germ...
The.Last.Man.On.Earth.S04.Ge...
The.Last.Man.On.Earth.S04.Ge...
Arrow.S06.GERMAN.DL.1080p.HD...
Arrow.S06.GERMAN.DL.720p.HDT...
Razorback.Kampfkoloss.der.Ho...
Rails.and.Ties.-.Aufbruch.in...
Deadpool.2.Super.Duper.Cut.2...
Passenger.Legs.of.Steel.2015...
Fear.The.Walking.Dead.S04.Ge...
Fear.The.Walking.Dead.S04.Ge...
Complications.S01.COMPLETE.G...
Blood.And.Flowers.Der.Waecht...
Casablanca.1942.German.AC3.D...
The.Remains.2016.German.DL.1...
The.Punisher.2004.UNCUT.Germ...
Ein.Kind.wartet.1963.German....

 
 
Winchester.Das.Haus.der.Verdammten.2018.German.DTS.DL.1080p.BluRay.x264-LeetHD

Jahr: 2018
Genre: Horror, Biografie
Sprache: Deutsch DTS | Englisch DTS
Laufzeit: 1h 39mn
Bitrate: 7 668 Kbps
Format: MKV
Größe: 5.32 GiB
Release:

Beschreibung:
Auf einem abgelegenen Grundstück außerhalb San Franciscos steht das gigantische Anwesen der Winchester-Familie, mit sieben Stockwerken und mehreren hundert Räumen pro Etage. An dem Haus, das bereits seit mehreren Dekaden in Konstruktion ist, wird immer noch gebaut. Angelegt ist es als riesiges Labyrinth – mit Türen, hinter denen Wände sind und einer Treppe, die in der Decke endet. Bauherrin Sarah Winchester (Helen Mirren), die Witwe des berühmten Waffenherstellers William Winchester, will sich auf diese Weise die Geister vom Leib halten, von denen sie sich verfolgt fühlt. Seit dem Tod ihres Mannes und ihres Kindes glaubt sie, dass die gequälten Seelen derjenigen, die durch die Waffen des berühmten Unternehmens zu Tode gekommen sind, Rache an der Familie nehmen wollen. Dr. Eric Price (Jason Clarke) soll den Geisteszustand der alten Dame untersuchen. Vor Ort stellt er fest, dass in dem Gemäuer tatsächlich merkwürdige Dinge vorgehen. Zusammen mit der Lady Winchester und ihrer Nichte Marion (Sarah Snook) versucht er, die Nacht zu überleben…


Complete name                            : lhd-winchester-1080.mkv
Format                                   : Matroska
Format version                           : Version 2
File size                                : 5.32 GiB
Duration                                 : 1h 39mn
Overall bit rate                         : 7 668 Kbps
Encoded date                             : UTC 2018-08-25 18:55:49
Writing application                      : mkvmerge v24.0.0 ('Beyond The Pale') 64-bit
Writing library                          : libebml v1.3.6 + libmatroska v1.4.9
DURATION                                 : 01:29:44.706000000
NUMBER_OF_FRAMES                         : 17
NUMBER_OF_BYTES                          : 117140
_STATISTICS_WRITING_APP                  : mkvmerge v24.0.0 ('Beyond The Pale') 64-bit
_STATISTICS_WRITING_DATE_UTC             : 2018-08-25 18:55:49
_STATISTICS_TAGS                         : BPS DURATION NUMBER_OF_FRAMES NUMBER_OF_BYTES

Video
ID                                       : 1
Format                                   : AVC
Format/Info                              : Advanced Video Codec
Format profile                           : [email protected]
Format settings, CABAC                   : Yes
Format settings, ReFrames                : 5 frames
Codec ID                                 : V_MPEG4/ISO/AVC
Duration                                 : 1h 39mn
Bit rate                                 : 4 497 Kbps
Width                                    : 1 920 pixels
Height                                   : 804 pixels
Display aspect ratio                     : 2.40:1
Frame rate mode                          : Constant
Frame rate                               : 24.000 fps
Color space                              : YUV
Chroma subsampling                       : 4:2:0
Bit depth                                : 8 bits
Scan type                                : Progressive
Bits/(Pixel*Frame)                       : 0.121
Stream size                              : 3.12 GiB (59%)
Title                                    : winchester.das.haus.der.verdammten.2018.german.dl.1080p.bluray.avc-avc4d
Writing library                          : x264 core 155 r2901 7d0ff22
Encoding settings                        : cabac=1 / ref=5 / deblock=1:-1:-1 / analyse=0x3:0x113 / me=umh / subme=8 / psy=1 / psy_rd=0.99:0.01 / mixed_ref=1 / me_range=16 / chroma_me=1 / trellis=1 / 8x8dct=1 / cqm=0 / deadzone=21,11 / fast_pskip=0 / chroma_qp_offset=-3 / threads=12 / lookahead_threads=2 / sliced_threads=0 / nr=0 / decimate=1 / interlaced=0 / bluray_compat=0 / constrained_intra=0 / bframes=3 / b_pyramid=2 / b_adapt=2 / b_bias=0 / direct=3 / weightb=1 / open_gop=0 / weightp=2 / keyint=240 / keyint_min=24 / scenecut=40 / intra_refresh=0 / rc_lookahead=40 / rc=crf / mbtree=1 / crf=17.0 / qcomp=0.60 / qpmin=0 / qpmax=69 / qpstep=4 / vbv_maxrate=62500 / vbv_bufsize=78125 / crf_max=0.0 / nal_hrd=none / filler=0 / ip_ratio=1.40 / aq=1:1.00
Default                                  : Yes
Forced                                   : No

Audio #1
ID                                       : 2
Format                                   : DTS
Format/Info                              : Digital Theater Systems
Mode                                     : 16
Format settings, Endianness              : Big
Codec ID                                 : A_DTS
Duration                                 : 1h 39mn
Bit rate mode                            : Constant
Bit rate                                 : 1 509 Kbps
Channel(s)                               : 6 channels
Channel positions                        : Front: L C R, Side: L R, LFE
Sampling rate                            : 48.0 KHz
Bit depth                                : 24 bits
Compression mode                         : Lossy
Stream size                              : 1.05 GiB (20%)
Language                                 : German
Default                                  : Yes
Forced                                   : No

Audio #2
ID                                       : 3
Format                                   : DTS
Format/Info                              : Digital Theater Systems
Mode                                     : 16
Format settings, Endianness              : Big
Codec ID                                 : A_DTS
Duration                                 : 1h 39mn
Bit rate mode                            : Constant
Bit rate                                 : 1 509 Kbps
Channel(s)                               : 6 channels
Channel positions                        : Front: L C R, Side: L R, LFE
Sampling rate                            : 48.0 KHz
Bit depth                                : 24 bits
Compression mode                         : Lossy
Stream size                              : 1.05 GiB (20%)
Language                                 : English
Default                                  : No
Forced                                   : No

Text #1
ID                                       : 4
Format                                   : UTF-8
Codec ID                                 : S_TEXT/UTF8
Codec ID/Info                            : UTF-8 Plain Text
Title                                    : forced
Language                                 : German
Default                                  : Yes
Forced                                   : Yes

Text #2
ID                                       : 5
Format                                   : VobSub
Muxing mode                              : zlib
Codec ID                                 : S_VOBSUB
Codec ID/Info                            : The same subtitle format used on DVDs
Title                                    : complete
Language                                 : German
Default                                  : No
Forced                                   : No


Download:
Share Online Share OnlineShare OnlineShare Online
 

Kommentare